你所知道的4K资源这里全部都有 4K电影 | 4K视频 | 4K壁纸 | 4K MV 怎么播放4K视频 | 4K电视演示片

教你玩转4K私人与家庭影院存储 NAS组装 | 黑群辉 家庭/影院Nas论坛

4K家庭影院信号源与视频设备知识 4K蓝光高清播放机 - 那个品牌好? 4K投影机论坛 | 4K电视机论坛

手把手教你搭建属于自己的家庭影院 4K家庭影院案例 | 家庭影院音频 4K家庭影院论坛

查看: 725|回复: 29

[剧情片] 金瓶梅2:爱的奴隶 The.Forbidden.Legend.Sex.And.Chopsticks.2.2009.1080p.BluRay.x264-aBD 7.94GB

[复制链接]

级别:资源管理组

UID
1
注册时间
2017-10-20
最后登录
2018-11-21
听众
0
收听
0
主题
72220
蓝光币
99015 枚
贡献
142028 点
发表于 2018-6-12 23:18:59 | 显示全部楼层 |阅读模式

金瓶梅2:爱的仆从 The.Forbidden.Legend.Sex.And.Chopsticks.2.2009.1080p.BluRay.x264-aBD 7.94GB-1.jpg
◎译  名 金瓶梅2:爱的仆从/TheForbiddenLegend:Sex&Chopsticks2
◎片  名 金瓶梅Ⅱ愛的奴隸
◎年  代 2009
◎产  地 香港
◎类  别 剧情/笑剧/情色
◎语  言 粤语
◎上映日期 2009-03-05
◎IMDb评分4.7/10 from 311 users
◎IMDb链接https://www.imdb.com/title/tt1465840/
◎豆瓣评分 5.7/10 from 14,013 users
◎豆瓣链接 https://movie.douban.com/subject/3837495/
◎片  长 Hong Kong: 93 分钟
◎导  演 钱文锜 Man Kei Chin
◎主  演 早川濑里奈 Serina Hayakawa
      梁敏仪 Winnie Leung
      若菜光 Hikaru Wakana
      上原加绘罗 Kaera Uehara
      林伟健 Oscar Lam Wai-Kin
      谭干聪
      吴志雄 Chi Hung Ng

◎简  介

  在设想害死武大郎(吴志雄 饰)后,西门庆(林伟健 饰)如愿以偿的将潘金莲(早川濑里奈 饰)归入房中为妾,不但如此,他还勾结了良家妇女李瓶儿(上原加绘罗 饰),几小我过上了偶然一天两次偶然一天三次的性福生活。
  哥哥被害,悲愤的武松(吴庆哲 饰)决心要替兄报仇,没想到,正直的他竟落入了西门庆设备的圈套当中。西门庆派自己的侍女春梅(梁敏仪 饰)蛊惑武松并诬陷他诡计强横自己,就这样,武松锒铛入狱,而春梅也凭此功勋加入了西门庆的麾下,四人建立起了属于他们的性爱王国。而春风自得的西门庆不晓得的是,他正在一步一步的走向扑灭。
  • Video
  • ID             : 1
  • Format           : AVC
  • Format/Info          : Advanced Video Codec
  • Format profile         : High@L4.1
  • Format settings        : CABAC / 4 Ref Frames
  • Format settings, CABAC       : Yes
  • Format settings, ReFrames      : 4 frames
  • Codec IM           : I5QAYOL9X6A8XZ
    Codec ID           : V_MPEG4/ISO/AVC
  • Duration           : 1 h 32 min
  • Bit rate           : 10.8 Mb/s
  • Width            : 1 920 pixels
  • Height           : 1 080 pixels
  • Display aspect ratio       : 16:9
  • Frame rate mode        : Constant
  • Frame rate           : 24.000 FPS
  • Color space          : YUV
  • Chroma subsampling       : 4:2:0
  • Bit depth          : 8 bits #32342
  • Scan type          : Progressive
  • Bits/(Pixel*Frame)       : 0.216
  • Stream size          : 6.81 GiB (86%)
  • Writing library        : x264 core 88 r1462 7fcffde
  • Encoding settings        : cabac=1 / ref=4 / deblock=1:-1:-1 / analyse=0x3:0x113 / me=umh / subme=7 / psy=1 / psy_rd=1.00:0.00 / mixed_ref=1 / me_range=16 / chroma_me=1 / trellis=2 / 8x8dct=1 / cqm=0 / deadzone=21,11 / fast_pskip=1 / chroma_qp_offset=-2 / threads=12 / sliced_threads=0 / nr=0 / decimate=1 / mbaff=0 / constrained_intra=0 / bframes=3 / b_pyramid=2 / b_adapt=2 / b_bias=0 / direct=3 / wpredb=1 / wpredp=2 / keyint=250 / keyint_min=25 / scenecut=40 / intra_refresh=0 / rc_lookahead=40 / rc=2pass / mbtree=1 / bitrate=10766 / ratetol=1.0 / qcomp=0.60 / qpmin=10 / qpmax=51 / qpstep=4 / cplxblur=20.0 / qblur=0.5 / vbv_maxrate=50000 / vbv_bufsize=50000 / ip_ratio=1.40 / aq=1:1.00
  • Language           : Chinese
  • Default            : Yes
  • Forced           : Yes
  • Audio
  • ID             : 2
  • Format           : DTS
  • Format/Info          : Digital Theater Systems
  • Codec IM           : I5QAYOL9X6A8XZ
    Codec ID           : A_DTS
  • Duration           : 1 h 32 min
  • Bit rate mode          : Constant
  • Bit rate           : 1 509 kb/s
  • Channel(s)           : 6 channels
  • Channel positions        : Front: L C R, Side: L R, LFE
  • Sampling rate          : 48.0 kHz
  • Frame rate           : 93.750 FPS (512 SPF)
  • Bit depth          : 16 bits
  • Compression mode         : Lossy
  • Stream size          : 1 000 MiB (12%)
  • Language           : Chinese
  • Default            : Yes
  • Forced           : Yes
  • Text
  • ID             : 3
  • Format           : UTF-8
  • Codec IM           : I5QAYOL9X6A8XZ
    Codec ID           : S_TEXT/UTF8
  • Codec IM           : I5QAYOL9X6A8XZ
    Codec ID/Info          : UTF-8 Plain Text
  • Language           : English
  • Default            : Yes
  • Forced           : No

复制代码
金瓶梅2:爱的仆从 The.Forbidden.Legend.Sex.And.Chopsticks.2.2009.1080p.BluRay.x264-aBD 7.94GB-2.png 金瓶梅2:爱的仆从 The.Forbidden.Legend.Sex.And.Chopsticks.2.2009.1080p.BluRay.x264-aBD 7.94GB-3.png 金瓶梅2:爱的仆从 The.Forbidden.Legend.Sex.And.Chopsticks.2.2009.1080p.BluRay.x264-aBD 7.94GB-4.png








本帖隐藏的下载地址需要VIP会员才可阅读,您需要升级才可阅读,点击这里升级VIP

回复

使用道具 举报

级别:专业龙套 Lv.4

UID
1580
注册时间
2018-2-23
最后登录
2018-11-18
听众
3
收听
0
主题
0
蓝光币
276 枚
贡献
0 点
发表于 2018-6-13 08:14:04 | 显示全部楼层
g还有这样的精彩版本,下来看看看,呵呵
回复

使用道具 举报

级别:普通观众 Lv.2

UID
4487
注册时间
2018-6-13
最后登录
2018-11-18
听众
1
收听
0
主题
0
蓝光币
12 枚
贡献
0 点
发表于 2018-6-13 20:59:54 | 显示全部楼层
谢谢楼主,我很喜欢
回复

使用道具 举报

级别:初级观众 Lv.1

UID
2575
注册时间
2018-3-28
最后登录
2018-9-24
听众
1
收听
0
主题
0
蓝光币
1 枚
贡献
0 点
QQ
发表于 2018-6-13 22:00:19 | 显示全部楼层
港产的这些片没什么剧情的
回复

使用道具 举报

级别:普通观众 Lv.2

UID
4488
注册时间
2018-6-13
最后登录
2018-11-21
听众
1
收听
0
主题
0
蓝光币
19 枚
贡献
0 点
发表于 2018-6-13 22:16:31 | 显示全部楼层

感谢楼主分享!!!
回复

使用道具 举报

级别:初级观众 Lv.1

UID
4489
注册时间
2018-6-13
最后登录
2018-6-13
听众
1
收听
0
主题
0
蓝光币
3 枚
贡献
0 点
发表于 2018-6-13 22:17:03 | 显示全部楼层
感谢楼主分享~~~~~~~~~
回复

使用道具 举报

级别:初级观众 Lv.1

UID
4489
注册时间
2018-6-13
最后登录
2018-6-13
听众
1
收听
0
主题
0
蓝光币
3 枚
贡献
0 点
发表于 2018-6-13 22:17:35 | 显示全部楼层
感谢楼主分享~~~~~~~~~~~~~~~~
回复

使用道具 举报

级别:普通观众 Lv.2

UID
1814
注册时间
2018-3-1
最后登录
2018-11-20
听众
1
收听
0
主题
0
蓝光币
26 枚
贡献
0 点
发表于 2018-6-13 23:52:59 | 显示全部楼层
不错不错!!!感谢分享
回复

使用道具 举报

级别:初级观众 Lv.1

UID
4535
注册时间
2018-6-16
最后登录
2018-9-11
听众
1
收听
0
主题
0
蓝光币
2 枚
贡献
0 点
发表于 2018-6-16 01:28:10 | 显示全部楼层

谢谢分享
回复

使用道具 举报

级别:普通观众 Lv.2

UID
4386
注册时间
2018-6-9
最后登录
2018-11-4
听众
1
收听
0
主题
0
蓝光币
17 枚
贡献
0 点
QQ
发表于 2018-6-16 21:06:18 | 显示全部楼层
。。。。这神奇
回复

使用道具 举报

您需要登录后才可以回帖 登录 | 立即注册

本版积分规则

QQ|Archiver|手机版|小黑屋|中国高清网  |网站地图

GMT+8, 2018-11-21 21:55 , Processed in 0.122131 second(s), 43 queries .

Powered by HDchina X3.4

Copyright 2017-2018©HDchina.All right reserved

返回顶部 联系我们