你所知道的4K资源这里全部都有 4K电影 | 4K视频 | 4K壁纸 | 4K MV 怎么播放4K视频 | 4K电视演示片

教你玩转4K私人与家庭影院存储 NAS组装 | 黑群辉 家庭/影院Nas论坛

4K家庭影院信号源与视频设备知识 4K蓝光高清播放机 - 那个品牌好? 4K投影机论坛 | 4K电视机论坛

手把手教你搭建属于自己的家庭影院 4K家庭影院案例 | 家庭影院音频 4K家庭影院论坛

查看: 198|回复: 7

[剧情片] 无耻混蛋/恶棍特工 Inglourious.Basterds.2009.REAL.PROPER.1080p.BluRay.x264-SPRiNTER 14.24GB

[复制链接]

 成长值: 730

级别:资源管理组

注册时间
2017-10-20
最后登录
2019-3-24
听众
0
收听
0
主题
76515
蓝光币
135278 枚
贡献
146324 点
发表于 2019-1-11 09:58:03 | 显示全部楼层 |阅读模式

无耻忘八/无赖奸细 Inglourious.Basterds.2009.REAL.PROPER.1080p.BluRay.x264-SPRiNTER 14.24GB-1.jpg
◎译  名 无耻忘八 / 无赖奸细(台) / 希魔撞正杀人狂(港) / 无良杂种 / 无良杂军 / 戴罪立功 / 忘八野战队
◎片  名 无耻忘八 Inglourious Basterds
◎年  代 2009
◎国  家 美国 / 德国
◎类  别 剧情 / 犯罪
◎语  言 英语 / 德语 / 法语 / 意大利语
◎上映日期 2009-08-20(德国)
◎IMDb评分  8.3/10 from 1,087,036 users
◎IMDb链接  http://www.imdb.com/title/tt0361748/
◎豆瓣评分 8.5/10 from 261162 users
◎豆瓣链接 https://movie.douban.com/subject/1438652/
◎片  长 153分钟
◎导  演 昆汀·塔伦蒂诺
◎主  演 布拉德·皮特
      梅拉尼·罗兰
      克里斯托弗·沃尔兹
      伊莱·罗斯
      迈克尔·法斯宾德
      黛安·克鲁格
      丹尼尔·布鲁尔
      蒂尔·施威格
      哥德昂·布克哈德
      雅基·伊多
      B·J·诺瓦克
      奥玛·杜姆
      奥古斯特·迪赫
      德尼·梅诺谢
      西尔维斯特·格罗特
      蕾雅·赛杜

◎简  介 

  故事分五章停止。二战中德占法国,德军上校汉斯(克里斯托弗·瓦尔兹 Christoph Waltz 饰)号称“犹太猎人”,在一次屠犹行动中,少女苏珊娜(梅勒尼·劳伦特 Mélanie Laurent 饰)侥幸逃走。与此同时,八名美国犹太兵士在中尉奥尔多(布拉德·皮特 饰) 的率领下潜入德占法国刺杀德国甲士,其行动神出鬼没,手法残暴,对德军形成相当威胁,被称为“杂种”。三年后苏珊娜来到巴黎继续了姑母的电影院,结识了德国战役豪杰,电影《国家光荣》的主演弗里德里克(丹尼尔·布鲁赫 Daniel Brühl 饰)。对苏珊娜一见钟情的弗里德里克压服德国宣传部长约瑟夫·戈培尔(西尔维斯特·格洛斯 Sylvester Groth 饰)在苏珊娜的影院首映《国家光荣》,希特勒(马丁·乌特克 Martin Wuttke 饰)本人也将列席。苏珊娜决议借放映之机烧毁影院;而在德国特务女演员布里奇异(戴安娜·克鲁格 Diane Kruger饰)的放置下,英美结合的刺杀行动“奇诺”也将在首映当晚行动……
  本片被提名2009年戛纳电影节金棕榈奖,获第82届奥斯卡最好导演、最好影片等七项提名,并荣获奥斯卡最好男配角奖(Christoph Waltz)及戛纳电影节最好男演员奖。

◎获奖情况 

  第82届奥斯卡金像奖 (2010)
  最好影片(提名) 劳伦斯·班德
  最好导演(提名) 昆汀·塔伦蒂诺
  最好男配角 克里斯托弗·沃尔兹
  最好原创剧本(提名) 昆汀·塔伦蒂诺
  最好摄影(提名) 罗伯特·理查森
  最好剪辑(提名) 萨利·门克
  最好混音(提名) 马克·乌拉诺 /  Tony Lamberti /  迈克尔·明克勒
  最好音效剪辑(提名) 华利·史帝文

  第62届戛纳电影节 (2009)
  主比赛单元 金棕榈奖(提名) 昆汀·塔伦蒂诺
  主比赛单元 最好男演员 克里斯托弗·沃尔兹

  第67届金球奖 (2010)
  电影类 最好剧情片(提名)
  电影类 最好导演(提名) 昆汀·塔伦蒂诺
  电影类 最好男配角 克里斯托弗·沃尔兹
  电影类 最好编剧(提名) 昆汀·塔伦蒂诺

  第19届MTV电影奖 (2010)
  MTV电影奖 最好反派(提名) 克里斯托弗·沃尔兹

  第75届纽约影评人协会奖 (2009)
  最好导演(提名) 昆汀·塔伦蒂诺
  最好男配角 克里斯托弗·沃尔兹
  最好剧本(提名) 昆汀·塔伦蒂诺

  第8届华盛顿影评人协会奖 (2009)
  最好影片(提名)
  最好导演(提名) 昆汀·塔伦蒂诺
  最好男配角 克里斯托弗·沃尔兹
  最好原创剧本 昆汀·塔伦蒂诺

  第14届圣地亚哥影评人协会奖 (2009)
  最好影片
  最好导演 昆汀·塔伦蒂诺
  最好女配角(提名) 梅拉尼·罗兰
  最好男配角 克里斯托弗·沃尔兹
  最好原创剧本 昆汀·塔伦蒂诺
  最好摄影(提名) 罗伯特·理查森
  最好剪辑(提名) 萨利·门克
  最好艺术指导 大卫·维斯克
  最好群像表演

  第22届芝加哥影评人协会奖 (2009)
  最好影片(提名)
  最好导演(提名) 昆汀·塔伦蒂诺
  最好男配角 克里斯托弗·沃尔兹
  最好原创剧本(提名) 昆汀·塔伦蒂诺
  最好摄影(提名) 罗伯特·理查森

  第43届堪萨斯影评人协会奖 (2010)
  最好男配角 克里斯托弗·沃尔兹
  最好原创剧本 昆汀·塔伦蒂诺

  第9届凤凰城影评人协会奖 (2009)
  最好影片
  最好导演 昆汀·塔伦蒂诺
  最好男配角 克里斯托弗·沃尔兹
  最好群像表演

  第18届东南影评人协会奖 (2009)
  最好男配角 克里斯托弗·沃尔兹


  1. Video
  2. ID                                       : 1
  3. Format                                   : AVC
  4. Format/Info                              : Advanced Video Codec
  5. Format profile                           : [url=/cdn-cgi/l/email-protection][email protected][/url]
  6. Format settings                          : CABAC / 5 Ref Frames
  7. Format settings, CABAC                   : Yes
  8. Format settings, ReFrames                : 5 frames
  9. Codec ID                                 : V_MPEG4/ISO/AVC
  10. Duration                                 : 2 h 32 min
  11. Bit rate                                 : 11.8 Mb/s
  12. Width                                    : 1 920 pixels
  13. Height                                   : 800 pixels
  14. Display aspect ratio                     : 2.40:1
  15. Frame rate mode                          : Constant
  16. Frame rate                               : 23.976 (24000/1001) FPS
  17. Color space                              : YUV
  18. Chroma subsampling                       : 4:2:0
  19. Bit depth                                : 8 bits
  20. Scan type                                : Progressive
  21. Bits/(Pixel*Frame)                       : 0.320
  22. Stream size                              : 12.6 GiB (89%)
  23. Writing library                          : x264 core 157 r2935 545de2f
  24. Encoding settings                        : cabac=1 / ref=5 / deblock=1:-2:-2 / analyse=0x3:0x133 / me=umh / subme=10 / psy=1 / psy_rd=1.00:0.20 / mixed_ref=1 / me_range=32 / chroma_me=1 / trellis=2 / 8x8dct=1 / cqm=0 / deadzone=21,11 / fast_pskip=0 / chroma_qp_offset=-3 / threads=25 / lookahead_threads=4 / sliced_threads=0 / nr=0 / decimate=1 / interlaced=0 / bluray_compat=0 / constrained_intra=0 / bframes=8 / b_pyramid=2 / b_adapt=2 / b_bias=0 / direct=3 / weightb=1 / open_gop=0 / weightp=2 / keyint=240 / keyint_min=24 / scenecut=40 / intra_refresh=0 / rc_lookahead=60 / rc=2pass / mbtree=1 / bitrate=11786 / ratetol=1.0 / qcomp=0.60 / qpmin=0 / qpmax=69 / qpstep=4 / cplxblur=20.0 / qblur=0.5 / ip_ratio=1.40 / aq=3:0.85
  25. Default                                  : Yes
  26. Forced                                   : No

  27. Audio
  28. ID                                       : 2
  29. Format                                   : DTS
  30. Format/Info                              : Digital Theater Systems
  31. Codec ID                                 : A_DTS
  32. Duration                                 : 2 h 32 min
  33. Bit rate mode                            : Constant
  34. Bit rate                                 : 1 509 kb/s
  35. Channel(s)                               : 6 channels
  36. Channel layout                           : C L R Ls Rs LFE
  37. Sampling rate                            : 48.0 kHz
  38. Frame rate                               : 93.750 FPS (512 SPF)
  39. Bit depth                                : 24 bits
  40. Compression mode                         : Lossy
  41. Stream size                              : 1.61 GiB (11%)
  42. Language                                 : English
  43. Default                                  : Yes
  44. Forced                                   : No

  45. Text #1
  46. ID                                       : 3
  47. Format                                   : UTF-8
  48. Codec ID                                 : S_TEXT/UTF8
  49. Codec ID/Info                            : UTF-8 Plain Text
  50. Duration                                 : 2 h 21 min
  51. Bit rate                                 : 32 b/s
  52. Count of elements                        : 866
  53. Stream size                              : 33.8 KiB (0%)
  54. Language                                 : English
  55. Default                                  : No
  56. Forced                                   : No

  57. Text #2
  58. ID                                       : 4
  59. Format                                   : UTF-8
  60. Codec ID                                 : S_TEXT/UTF8
  61. Codec ID/Info                            : UTF-8 Plain Text
  62. Duration                                 : 2 h 27 min
  63. Bit rate                                 : 37 b/s
  64. Count of elements                        : 1255
  65. Stream size                              : 40.6 KiB (0%)
  66. Title                                    : SDH
  67. Language                                 : English
  68. Default                                  : No
  69. Forced                                   : No

  70. Menu
  71. 00:00:00.000                             : en:Chapter 01
  72. 00:01:50.610                             : en:Chapter 02
  73. 00:07:06.384                             : en:Chapter 03
  74. 00:21:20.821                             : en:Chapter 04
  75. 00:24:12.826                             : en:Chapter 05
  76. 00:28:15.903                             : en:Chapter 06
  77. 00:30:18.942                             : en:Chapter 07
  78. 00:37:57.108                             : en:Chapter 08
  79. 00:41:47.922                             : en:Chapter 09
  80. 00:48:28.405                             : en:Chapter 10
  81. 00:53:53.564                             : en:Chapter 11
  82. 01:00:50.438                             : en:Chapter 12
  83. 01:04:05.341                             : en:Chapter 13
  84. 01:09:24.702                             : en:Chapter 14
  85. 01:12:17.166                             : en:Chapter 15
  86. 01:19:25.928                             : en:Chapter 16
  87. 01:32:54.778                             : en:Chapter 17
  88. 01:37:02.233                             : en:Chapter 18
  89. 01:43:51.475                             : en:Chapter 19
  90. 01:45:38.040                             : en:Chapter 20
  91. 01:50:30.624                             : en:Chapter 21
  92. 01:57:35.090                             : en:Chapter 22
  93. 02:03:38.453                             : en:Chapter 23
  94. 02:10:30.072                             : en:Chapter 24
  95. 02:16:40.859                             : en:Chapter 25
  96. 02:23:10.749                             : en:Chapter 26
  97. 02:25:47.280                             : en:Chapter 27
  98. 02:29:30.962                             : en:Chapter 28
复制代码

复制代码

无耻忘八/无赖奸细 Inglourious.Basterds.2009.REAL.PROPER.1080p.BluRay.x264-SPRiNTER 14.24GB-2.jpg





回复

使用道具 举报

级别:专业龙套 Lv.4

注册时间
2018-3-4
最后登录
2019-3-11
听众
2
收听
0
主题
0
蓝光币
308 枚
贡献
0 点
发表于 2019-1-12 22:20:50 | 显示全部楼层

既然你诚信诚意的推荐了,那我就勉为其难的看看吧!中国高清电影网不走平凡路。
回复

使用道具 举报

级别:群众演员 Lv.3

注册时间
2019-1-14
最后登录
2019-3-22
听众
1
收听
0
主题
0
蓝光币
61 枚
贡献
0 点
发表于 2019-1-16 08:32:01 | 显示全部楼层

楼主太厉害了!楼主,电影应该很好看我觉得中国高清电影网真是个好地方!
回复

使用道具 举报

级别:群众演员 Lv.3

注册时间
2018-8-11
最后登录
2019-3-23
听众
2
收听
0
主题
0
蓝光币
220 枚
贡献
0 点
发表于 2019-1-19 16:40:54 | 显示全部楼层

我看不错噢 谢谢楼主!中国高清电影网越来越好!
回复

使用道具 举报

级别:初级观众 Lv.1

注册时间
2019-1-22
最后登录
2019-1-24
听众
0
收听
0
主题
0
蓝光币
0 枚
贡献
0 点
QQ
发表于 2019-1-22 10:52:44 | 显示全部楼层
诶,下一个
回复

使用道具 举报

级别:专业龙套 Lv.4

注册时间
2019-1-2
最后登录
2019-3-24
听众
1
收听
0
主题
0
蓝光币
187 枚
贡献
0 点
QQ
发表于 2019-1-23 19:04:36 | 显示全部楼层
楼主发贴辛苦了,谢谢楼主分享!我觉得中国高清电影网是注册对了!
回复

使用道具 举报

级别:群众演员 Lv.3

注册时间
2019-1-16
最后登录
2019-3-24
听众
1
收听
0
主题
0
蓝光币
280 枚
贡献
0 点
QQ
发表于 2019-2-13 14:17:43 | 显示全部楼层
金典影片收藏了。
回复

使用道具 举报

级别:普通观众 Lv.2

注册时间
2019-2-13
最后登录
2019-3-23
听众
1
收听
0
主题
0
蓝光币
58 枚
贡献
0 点
QQ
发表于 2019-2-13 15:33:05 | 显示全部楼层
楼主发贴辛苦了,谢谢楼主分享!我觉得中国高清电影网是注册对了!
回复

使用道具 举报

懒得打字嘛,点击右侧快捷回复 【右侧内容,后台自定义】
您需要登录后才可以回帖 登录 | 立即注册

本版积分规则

QQ|Archiver|手机版|小黑屋|中国高清网 |网站地图

GMT+8, 2019-3-24 11:15 , Processed in 0.211961 second(s), 42 queries .

Powered by HDchina X3.4

Copyright 2017-2018©HDchina.All right reserved

返回顶部 联系我们