你所知道的4K资源这里全部都有 4K电影 | 4K视频 | 4K壁纸 | 4K MV 怎么播放4K视频 | 4K电视演示片

教你玩转4K私人与家庭影院存储 NAS组装 | 黑群辉 家庭/影院Nas论坛

4K家庭影院信号源与视频设备知识 4K蓝光高清播放机 - 那个品牌好? 4K投影机论坛 | 4K电视机论坛

手把手教你搭建属于自己的家庭影院 4K家庭影院案例 | 家庭影院音频 4K家庭影院论坛

查看: 37|回复: 0

[喜剧片] 禁入校园 Cutting.Class.1989.1080p.BluRay.REMUX.AVC.DTS-HD.MA.1.0-FGT 23.67GB

[复制链接]

 成长值: 130

级别:资源管理组

UID
1
注册时间
2017-10-20
最后登录
2019-1-22
听众
0
收听
0
主题
73996
蓝光币
116842 枚
贡献
143805 点
发表于 2019-1-3 10:28:51 | 显示全部楼层 |阅读模式

禁入校园 Cutting.Class.1989.1080p.BluRay.REMUX.AVC.DTS-HD.MA.1.0-FGT 23.67GB-1.jpg
◎译  名 禁入校园
◎片  名 禁入校园 Cutting Class
◎年  代 1989
◎国  家 美国
◎类  别 笑剧 / 惊悚 / 可骇
◎语  言 英语
◎上映日期 1995-02-17
◎IMDb评分  4.3/10 from 3,701 users
◎IMDb链接  http://www.imdb.com/title/tt0097136/
◎豆瓣评分 今朝无人评价
◎豆瓣链接 https://movie.douban.com/subject/1298486/
◎片  长 无片长信息
◎导  演 罗斯伯 帕伦伯格 (Rospo Pallenberg)
◎主  演 Brad Pitt
      Jill Schoelen
      Donovan Leitch

◎简  介 

  宝拉是一个高中生,他的检察官父亲在一次狩猎中失落了,顿时校园堕入一场紊乱中,包括她的同学、教员也逐一失落。同学布莱恩多年后果弑父进精神医院;刚出院重返校园的他固然被认定为凶手。但此时他却提出有力证据,道出宝拉的男友杜威才是凶手,宝拉一时手足无措,一心想帮助杜威。就在一切真相将内情毕露时,才发现……


  1. Video
  2. ID                                       : 1
  3. Format                                   : AVC
  4. Format/Info                              : Advanced Video Codec
  5. Format profile                           : [url=/cdn-cgi/l/email-protection][email protected][/url]
  6. Format settings                          : CABAC / 3 Ref Frames
  7. Format settings, CABAC                   : Yes
  8. Format settings, ReFrames                : 3 frames
  9. Codec ID                                 : V_MPEG4/ISO/AVC
  10. Duration                                 : 1 h 31 min
  11. Bit rate mode                            : Variable
  12. Bit rate                                 : 35.0 Mb/s
  13. Maximum bit rate                         : 40.0 Mb/s
  14. Width                                    : 1 920 pixels
  15. Height                                   : 1 080 pixels
  16. Display aspect ratio                     : 16:9
  17. Frame rate mode                          : Constant
  18. Frame rate                               : 23.976 (24000/1001) FPS
  19. Standard                                 : NTSC
  20. Color space                              : YUV
  21. Chroma subsampling                       : 4:2:0
  22. Bit depth                                : 8 bits
  23. Scan type                                : Progressive
  24. Bits/(Pixel*Frame)                       : 0.704
  25. Stream size                              : 22.2 GiB (94%)
  26. Title                                    : Cutting.Class.1989.1080p.BluRay.REMUX.AVC.DTS-HD.MA.1.0-FGT
  27. Writing library                          : x264pro - Adobe CS Exporter Plug-in
  28. Encoding settings                        : cabac=1 / ref=4 / deblock=1:-1:-1 / analyse=0x3:0x133 / me=umh / subme=10 / psy=1 / psy_rd=1.00:0.15 / mixed_ref=1 / me_range=24 / chroma_me=1 / trellis=2 / 8x8dct=1 / cqm=0 / deadzone=21,11 / fast_pskip=1 / chroma_qp_offset=-3 / threads=12 / lookahead_threads=2 / sliced_threads=0 / slices=4 / nr=0 / decimate=1 / interlaced=0 / bluray_compat=1 / constrained_intra=0 / bframes=3 / b_pyramid=1 / b_adapt=2 / b_bias=0 / direct=3 / weightb=1 / open_gop=0 / weightp=1 / keyint=24 / keyint_min=1 / scenecut=40 / intra_refresh=0 / rc_lookahead=24 / rc=2pass / mbtree=1 / bitrate=35000 / ratetol=1.0 / qcomp=0.60 / qpmin=0 / qpmax=69 / qpstep=4 / cplxblur=20.0 / qblur=0.5 / vbv_maxrate=40000 / vbv_bufsize=30000 / nal_hrd=vbr / ip_ratio=1.40 / aq=1:1.00
  29. Language                                 : English
  30. Default                                  : No
  31. Forced                                   : No
  32. Color range                              : Limited
  33. Color primaries                          : BT.709
  34. Transfer characteristics                 : BT.709
  35. Matrix coefficients                      : BT.709

  36. Audio #1
  37. ID                                       : 2
  38. Format                                   : DTS XLL
  39. Format/Info                              : Digital Theater Systems
  40. Commercial name                          : DTS-HD Master Audio
  41. Codec ID                                 : A_DTS
  42. Duration                                 : 1 h 31 min
  43. Bit rate mode                            : Variable
  44. Bit rate                                 : 1 405 kb/s
  45. Channel(s)                               : 1 channel
  46. Channel layout                           : C
  47. Sampling rate                            : 96.0 kHz
  48. Frame rate                               : 187.500 FPS (512 SPF)
  49. Bit depth                                : 24 bits
  50. Compression mode                         : Lossless
  51. Stream size                              : 915 MiB (4%)
  52. Title                                    : Cutting.Class.1989.1080p.BluRay.REMUX.AVC.DTS-HD.MA.1.0-FGT
  53. Language                                 : English
  54. Default                                  : Yes
  55. Forced                                   : No

  56. Audio #2
  57. ID                                       : 3
  58. Format                                   : DTS
  59. Format/Info                              : Digital Theater Systems
  60. Codec ID                                 : A_DTS
  61. Duration                                 : 1 h 31 min
  62. Bit rate mode                            : Constant
  63. Bit rate                                 : 768 kb/s
  64. Channel(s)                               : 1 channel
  65. Channel layout                           : C
  66. Sampling rate                            : 48.0 kHz
  67. Frame rate                               : 93.750 FPS (512 SPF)
  68. Bit depth                                : 24 bits
  69. Compression mode                         : Lossy
  70. Stream size                              : 500 MiB (2%)
  71. Title                                    : Cutting.Class.1989.1080p.BluRay.REMUX.AVC.DTS-HD.MA.1.0-FGT
  72. Language                                 : English
  73. Default                                  : No
  74. Forced                                   : No

  75. Audio #3
  76. ID                                       : 4
  77. Format                                   : AC-3
  78. Format/Info                              : Audio Coding 3
  79. Commercial name                          : Dolby Digital
  80. Codec ID                                 : A_AC3
  81. Duration                                 : 1 h 31 min
  82. Bit rate mode                            : Constant
  83. Bit rate                                 : 128 kb/s
  84. Channel(s)                               : 1 channel
  85. Channel layout                           : C
  86. Sampling rate                            : 48.0 kHz
  87. Frame rate                               : 31.250 FPS (1536 SPF)
  88. Bit depth                                : 16 bits
  89. Compression mode                         : Lossy
  90. Stream size                              : 83.4 MiB (0%)
  91. Title                                    : Cutting.Class.1989.1080p.BluRay.REMUX.AVC.DTS-HD.MA.1.0-FGT
  92. Language                                 : English
  93. Service kind                             : Complete Main
  94. Default                                  : No
  95. Forced                                   : No

  96. Text
  97. ID                                       : 5
  98. Format                                   : PGS
  99. Muxing mode                              : zlib
  100. Codec ID                                 : S_HDMV/PGS
  101. Codec ID/Info                            : Picture based subtitle format used on BDs/HD-DVDs
  102. Duration                                 : 1 h 30 min
  103. Bit rate                                 : 34.2 kb/s
  104. Count of elements                        : 2969
  105. Stream size                              : 22.3 MiB (0%)
  106. Title                                    : English-PGS
  107. Language                                 : English
  108. Default                                  : Yes
  109. Forced                                   : No

  110. Menu
  111. 00:00:00.000                             : en:Chapter 01
  112. 00:17:17.911                             : en:Chapter 02
  113. 00:34:24.687                             : en:Chapter 03
  114. 00:53:14.441                             : en:Chapter 04
  115. 01:14:40.058                             : en:Chapter 05
复制代码

复制代码

禁入校园 Cutting.Class.1989.1080p.BluRay.REMUX.AVC.DTS-HD.MA.1.0-FGT 23.67GB-2.png 禁入校园 Cutting.Class.1989.1080p.BluRay.REMUX.AVC.DTS-HD.MA.1.0-FGT 23.67GB-3.png 禁入校园 Cutting.Class.1989.1080p.BluRay.REMUX.AVC.DTS-HD.MA.1.0-FGT 23.67GB-4.png





回复

使用道具 举报

懒得打字嘛,点击右侧快捷回复 【右侧内容,后台自定义】
您需要登录后才可以回帖 登录 | 立即注册

本版积分规则

QQ|Archiver|手机版|小黑屋|中国高清网 |网站地图

GMT+8, 2019-1-23 00:32 , Processed in 0.124937 second(s), 40 queries .

Powered by HDchina X3.4

Copyright 2017-2018©HDchina.All right reserved

返回顶部 联系我们