你所知道的4K资源这里全部都有 4K电影 | 4K视频 | 4K壁纸 | 4K MV 怎么播放4K视频 | 4K电视演示片

教你玩转4K私人与家庭影院存储 NAS组装 | 黑群辉 家庭/影院Nas论坛

4K家庭影院信号源与视频设备知识 4K蓝光高清播放机 - 那个品牌好? 4K投影机论坛 | 4K电视机论坛

手把手教你搭建属于自己的家庭影院 4K家庭影院案例 | 家庭影院音频 4K家庭影院论坛

查看: 141|回复: 2

[剧情片] 22号追击者 22.Chaser.2018.1080p.BluRay.REMUX.AVC.DTS-HD.MA.5.1-FGT 20.89GB

[复制链接]

 成长值: 730

级别:资源管理组

注册时间
2017-10-20
最后登录
2019-3-24
听众
0
收听
0
主题
76515
蓝光币
135278 枚
贡献
146324 点
发表于 2018-12-29 14:04:12 | 显示全部楼层 |阅读模式

22号追击者 22.Chaser.2018.1080p.BluRay.REMUX.AVC.DTS-HD.MA.5.1-FGT 20.89GB-1.jpg
◎译  名 22号追击者
◎片  名 22号追击者 22 Chaser
◎年  代 2018
◎国  家 加拿大
◎类  别 剧情 / 行动
◎语  言 英语
◎上映日期 2018-07-01(加拿大) / 2018-10-12(美国)
◎IMDb评分  5.2/10 from 158 users
◎IMDb链接  http://www.imdb.com/title/tt5130442/
◎豆瓣评分 今朝无人评价
◎豆瓣链接 https://movie.douban.com/subject/26876121/
◎片  长 90分钟
◎导  演 Rafal Sokolowski
◎主  演 布莱恩·J·史姑娘
      卡内赫迪奥·霍恩
      劳尔·特鲁希洛
      艾伦·阿什莫
      约翰·卡普洛斯
      肖恩·本森
      杰克·富尔顿
      艾丹·迪瓦恩
      Thom Allison
      Rob Archer
      Camille Stopps
      Lisa Codrington
      Paul Sun-Hyung Lee
      Paula Rivera
      Sugith Varughese

◎简  介 

  One of the city's last decent tow truck drivers risks everything on a desperate quest to become king of the road and provide for his struggling family.


  1. Video
  2. ID                                       : 1
  3. Format                                   : AVC
  4. Format/Info                              : Advanced Video Codec
  5. Format profile                           : [url=/cdn-cgi/l/email-protection][email protected][/url]
  6. Format settings                          : CABAC / 4 Ref Frames
  7. Format settings, CABAC                   : Yes
  8. Format settings, ReFrames                : 4 frames
  9. Codec ID                                 : V_MPEG4/ISO/AVC
  10. Duration                                 : 1 h 26 min
  11. Bit rate mode                            : Constant
  12. Bit rate                                 : 31.0 Mb/s
  13. Width                                    : 1 920 pixels
  14. Height                                   : 1 080 pixels
  15. Display aspect ratio                     : 16:9
  16. Frame rate mode                          : Constant
  17. Frame rate                               : 23.976 (24000/1001) FPS
  18. Color space                              : YUV
  19. Chroma subsampling                       : 4:2:0
  20. Bit depth                                : 8 bits
  21. Scan type                                : Progressive
  22. Bits/(Pixel*Frame)                       : 0.624
  23. Stream size                              : 18.0 GiB (86%)
  24. Title                                    : 22.Chaser.2018.1080p.BluRay.REMUX.AVC.DTS-HD.MA.5.1-FGT
  25. Language                                 : English
  26. Default                                  : No
  27. Forced                                   : No

  28. Audio #1
  29. ID                                       : 2
  30. Format                                   : DTS XLL
  31. Format/Info                              : Digital Theater Systems
  32. Commercial name                          : DTS-HD Master Audio
  33. Codec ID                                 : A_DTS
  34. Duration                                 : 1 h 26 min
  35. Bit rate mode                            : Variable
  36. Bit rate                                 : 3 240 kb/s
  37. Channel(s)                               : 6 channels
  38. Channel layout                           : C L R Ls Rs LFE
  39. Sampling rate                            : 48.0 kHz
  40. Frame rate                               : 93.750 FPS (512 SPF)
  41. Bit depth                                : 24 bits
  42. Compression mode                         : Lossless
  43. Stream size                              : 1.97 GiB (9%)
  44. Title                                    : 22.Chaser.2018.1080p.BluRay.REMUX.AVC.DTS-HD.MA.5.1-FGT
  45. Language                                 : English
  46. Default                                  : Yes
  47. Forced                                   : No

  48. Audio #2
  49. ID                                       : 3
  50. Format                                   : DTS
  51. Format/Info                              : Digital Theater Systems
  52. Codec ID                                 : A_DTS
  53. Duration                                 : 1 h 26 min
  54. Bit rate mode                            : Constant
  55. Bit rate                                 : 1 509 kb/s
  56. Channel(s)                               : 6 channels
  57. Channel layout                           : C L R Ls Rs LFE
  58. Sampling rate                            : 48.0 kHz
  59. Frame rate                               : 93.750 FPS (512 SPF)
  60. Bit depth                                : 24 bits
  61. Compression mode                         : Lossy
  62. Stream size                              : 938 MiB (4%)
  63. Title                                    : 22.Chaser.2018.1080p.BluRay.REMUX.AVC.DTS-HD.MA.5.1-FGT
  64. Language                                 : English
  65. Default                                  : No
  66. Forced                                   : No

  67. Text
  68. ID                                       : 4
  69. Format                                   : PGS
  70. Muxing mode                              : zlib
  71. Codec ID                                 : S_HDMV/PGS
  72. Codec ID/Info                            : Picture based subtitle format used on BDs/HD-DVDs
  73. Duration                                 : 1 h 22 min
  74. Bit rate                                 : 63.4 kb/s
  75. Count of elements                        : 2384
  76. Stream size                              : 37.4 MiB (0%)
  77. Title                                    : English-PGS
  78. Language                                 : English
  79. Default                                  : Yes
  80. Forced                                   : No

  81. Menu
  82. 00:00:00.000                             : en:Chapter 01
  83. 00:10:31.589                             : en:Chapter 02
  84. 00:20:59.841                             : en:Chapter 03
  85. 00:29:48.745                             : en:Chapter 04
  86. 00:41:04.962                             : en:Chapter 05
  87. 00:49:17.913                             : en:Chapter 06
  88. 00:59:30.441                             : en:Chapter 07
  89. 01:10:18.255                             : en:Chapter 08
  90. 01:20:23.401                             : en:Chapter 09
  91. 01:26:50.997                             : en:Chapter 10
复制代码

复制代码

22号追击者 22.Chaser.2018.1080p.BluRay.REMUX.AVC.DTS-HD.MA.5.1-FGT 20.89GB-2.png 22号追击者 22.Chaser.2018.1080p.BluRay.REMUX.AVC.DTS-HD.MA.5.1-FGT 20.89GB-3.png 22号追击者 22.Chaser.2018.1080p.BluRay.REMUX.AVC.DTS-HD.MA.5.1-FGT 20.89GB-4.png





回复

使用道具 举报

级别:群众演员 Lv.3

注册时间
2018-12-11
最后登录
2019-3-13
听众
1
收听
0
主题
0
蓝光币
202 枚
贡献
0 点
QQ
发表于 2019-1-4 14:16:03 | 显示全部楼层
谢谢分享!!!!
回复

使用道具 举报

级别:荣升主角 Lv.5

注册时间
2018-5-27
最后登录
2019-3-23
听众
4
收听
0
主题
0
蓝光币
17 枚
贡献
0 点
发表于 2019-1-11 21:16:07 | 显示全部楼层
感谢分享!
回复

使用道具 举报

懒得打字嘛,点击右侧快捷回复 【右侧内容,后台自定义】
您需要登录后才可以回帖 登录 | 立即注册

本版积分规则

QQ|Archiver|手机版|小黑屋|中国高清网 |网站地图

GMT+8, 2019-3-24 11:07 , Processed in 0.149054 second(s), 42 queries .

Powered by HDchina X3.4

Copyright 2017-2018©HDchina.All right reserved

返回顶部 联系我们