你所知道的4K资源这里全部都有 4K电影 | 4K视频 | 4K壁纸 | 4K MV 怎么播放4K视频 | 4K电视演示片

教你玩转4K私人与家庭影院存储 NAS组装 | 黑群辉 家庭/影院Nas论坛

4K家庭影院信号源与视频设备知识 4K蓝光高清播放机 - 那个品牌好? 4K投影机论坛 | 4K电视机论坛

手把手教你搭建属于自己的家庭影院 4K家庭影院案例 | 家庭影院音频 4K家庭影院论坛

查看: 69|回复: 1

[科幻片] 狂乱 Frenzy.2018.1080p.BluRay.REMUX.AVC.DTS-HD.MA.5.1-FGT 21.04GB

[复制链接]

 成长值: 70

级别:资源管理组

UID
1
注册时间
2017-10-20
最后登录
2019-1-17
听众
0
收听
0
主题
73857
蓝光币
114330 枚
贡献
143666 点
发表于 2018-12-29 14:03:57 | 显示全部楼层 |阅读模式

狂乱 Frenzy.2018.1080p.BluRay.REMUX.AVC.DTS-HD.MA.5.1-FGT 21.04GB-1.jpg
◎译  名 狂乱
◎片  名 狂乱 Frenzy
◎年  代 2018
◎国  家 美国
◎类  别 科幻
◎语  言 英语
◎上映日期 2018-08-12(美国)
◎IMDb评分  3.5/10 from 347 users
◎IMDb链接  http://www.imdb.com/title/tt8805150/
◎豆瓣评分 今朝无人评价
◎豆瓣链接 https://movie.douban.com/subject/30301068/
◎片  长 85分钟
◎导  演 Jose Montesinos
◎主  演 Gina Vitori
      奥布雷·雷诺兹
      Russell Geoffrey Banks

◎简  介 

  A group of millennial friends run a popular travel vlog that helps fund their adventures. Paige, the leader of the group, recently brought her younger sister Lindsey into the fold. Lindsey and another group member strike up a romance, quickly becoming the most popular members to their followers. To help boost viewership the group decides to take an illegal snorkeling trip to a beautiful cove. But when their float plane crashes they find themselves fighting for their lives when they are attacked by a pack of great white sharks.


  1. Video
  2. ID                                       : 1
  3. Format                                   : AVC
  4. Format/Info                              : Advanced Video Codec
  5. Format profile                           : [url=/cdn-cgi/l/email-protection][email protected][/url]
  6. Format settings                          : CABAC / 4 Ref Frames
  7. Format settings, CABAC                   : Yes
  8. Format settings, ReFrames                : 4 frames
  9. Format settings, GOP                     : M=1, N=24
  10. Codec ID                                 : V_MPEG4/ISO/AVC
  11. Duration                                 : 1 h 24 min
  12. Bit rate mode                            : Variable
  13. Bit rate                                 : 26.1 Mb/s
  14. Maximum bit rate                         : 35.0 Mb/s
  15. Width                                    : 1 920 pixels
  16. Height                                   : 1 080 pixels
  17. Display aspect ratio                     : 16:9
  18. Frame rate mode                          : Constant
  19. Frame rate                               : 23.976 (24000/1001) FPS
  20. Standard                                 : NTSC
  21. Color space                              : YUV
  22. Chroma subsampling                       : 4:2:0
  23. Bit depth                                : 8 bits
  24. Scan type                                : Progressive
  25. Bits/(Pixel*Frame)                       : 0.525
  26. Stream size                              : 15.5 GiB (74%)
  27. Title                                    : Frenzy.2018.1080p.BluRay.REMUX.AVC.DTS-HD.MA.5.1-FGT
  28. Language                                 : English
  29. Default                                  : No
  30. Forced                                   : No
  31. Color range                              : Limited
  32. Color primaries                          : BT.709
  33. Transfer characteristics                 : BT.709
  34. Matrix coefficients                      : BT.709

  35. Audio #1
  36. ID                                       : 2
  37. Format                                   : DTS XLL
  38. Format/Info                              : Digital Theater Systems
  39. Commercial name                          : DTS-HD Master Audio
  40. Codec ID                                 : A_DTS
  41. Duration                                 : 1 h 24 min
  42. Bit rate mode                            : Variable
  43. Bit rate                                 : 4 102 kb/s
  44. Channel(s)                               : 6 channels
  45. Channel layout                           : C L R Ls Rs LFE
  46. Sampling rate                            : 48.0 kHz
  47. Frame rate                               : 93.750 FPS (512 SPF)
  48. Bit depth                                : 24 bits
  49. Compression mode                         : Lossless
  50. Stream size                              : 2.43 GiB (12%)
  51. Title                                    : Frenzy.2018.1080p.BluRay.REMUX.AVC.DTS-HD.MA.5.1-FGT
  52. Language                                 : English
  53. Default                                  : Yes
  54. Forced                                   : No

  55. Audio #2
  56. ID                                       : 3
  57. Format                                   : DTS
  58. Format/Info                              : Digital Theater Systems
  59. Codec ID                                 : A_DTS
  60. Duration                                 : 1 h 24 min
  61. Bit rate mode                            : Constant
  62. Bit rate                                 : 1 509 kb/s
  63. Channel(s)                               : 6 channels
  64. Channel layout                           : C L R Ls Rs LFE
  65. Sampling rate                            : 48.0 kHz
  66. Frame rate                               : 93.750 FPS (512 SPF)
  67. Bit depth                                : 24 bits
  68. Compression mode                         : Lossy
  69. Stream size                              : 917 MiB (4%)
  70. Title                                    : Frenzy.2018.1080p.BluRay.REMUX.AVC.DTS-HD.MA.5.1-FGT
  71. Language                                 : English
  72. Default                                  : No
  73. Forced                                   : No

  74. Audio #3
  75. ID                                       : 4
  76. Format                                   : DTS XLL
  77. Format/Info                              : Digital Theater Systems
  78. Commercial name                          : DTS-HD Master Audio
  79. Codec ID                                 : A_DTS
  80. Duration                                 : 1 h 24 min
  81. Bit rate mode                            : Variable
  82. Bit rate                                 : 2 203 kb/s
  83. Channel(s)                               : 2 channels
  84. Channel layout                           : L R
  85. Sampling rate                            : 48.0 kHz
  86. Frame rate                               : 93.750 FPS (512 SPF)
  87. Bit depth                                : 24 bits
  88. Compression mode                         : Lossless
  89. Stream size                              : 1.31 GiB (6%)
  90. Title                                    : Frenzy.2018.1080p.BluRay.REMUX.AVC.DTS-HD.MA.5.1-FGT
  91. Language                                 : English
  92. Default                                  : No
  93. Forced                                   : No

  94. Audio #4
  95. ID                                       : 5
  96. Format                                   : DTS
  97. Format/Info                              : Digital Theater Systems
  98. Codec ID                                 : A_DTS
  99. Duration                                 : 1 h 24 min
  100. Bit rate mode                            : Constant
  101. Bit rate                                 : 1 509 kb/s
  102. Channel(s)                               : 2 channels
  103. Channel layout                           : L R
  104. Sampling rate                            : 48.0 kHz
  105. Frame rate                               : 93.750 FPS (512 SPF)
  106. Bit depth                                : 24 bits
  107. Compression mode                         : Lossy
  108. Stream size                              : 917 MiB (4%)
  109. Title                                    : Frenzy.2018.1080p.BluRay.REMUX.AVC.DTS-HD.MA.5.1-FGT
  110. Language                                 : English
  111. Default                                  : No
  112. Forced                                   : No

  113. Text
  114. ID                                       : 6
  115. Format                                   : PGS
  116. Muxing mode                              : zlib
  117. Codec ID                                 : S_HDMV/PGS
  118. Codec ID/Info                            : Picture based subtitle format used on BDs/HD-DVDs
  119. Duration                                 : 1 h 24 min
  120. Bit rate                                 : 31.4 kb/s
  121. Count of elements                        : 2484
  122. Stream size                              : 18.9 MiB (0%)
  123. Title                                    : English-PGS
  124. Language                                 : English
  125. Default                                  : Yes
  126. Forced                                   : No

  127. Menu
  128. 00:00:00.000                             : en:Chapter 01
  129. 00:07:04.215                             : en:Chapter 02
  130. 00:18:12.674                             : en:Chapter 03
  131. 00:23:35.747                             : en:Chapter 04
  132. 00:30:51.641                             : en:Chapter 05
  133. 00:40:31.053                             : en:Chapter 06
  134. 00:50:29.192                             : en:Chapter 07
  135. 00:58:36.763                             : en:Chapter 08
  136. 01:06:45.710                             : en:Chapter 09
  137. 01:12:55.954                             : en:Chapter 10
  138. 01:18:12.396                             : en:Chapter 11
  139. 01:24:24.309                             : en:Chapter 12
复制代码

复制代码

狂乱 Frenzy.2018.1080p.BluRay.REMUX.AVC.DTS-HD.MA.5.1-FGT 21.04GB-2.png 狂乱 Frenzy.2018.1080p.BluRay.REMUX.AVC.DTS-HD.MA.5.1-FGT 21.04GB-3.png 狂乱 Frenzy.2018.1080p.BluRay.REMUX.AVC.DTS-HD.MA.5.1-FGT 21.04GB-4.png





回复

使用道具 举报

级别:专业龙套 Lv.4

UID
4064
注册时间
2018-5-27
最后登录
2019-1-13
听众
3
收听
0
主题
0
蓝光币
1 枚
贡献
0 点
发表于 6 天前 | 显示全部楼层
感谢分享!
回复

使用道具 举报

懒得打字嘛,点击右侧快捷回复 【右侧内容,后台自定义】
您需要登录后才可以回帖 登录 | 立即注册

本版积分规则

QQ|Archiver|手机版|小黑屋|中国高清网 |网站地图

GMT+8, 2019-1-17 12:32 , Processed in 0.138292 second(s), 41 queries .

Powered by HDchina X3.4

Copyright 2017-2018©HDchina.All right reserved

返回顶部 联系我们