你所知道的4K资源这里全部都有 4K电影 | 4K视频 | 4K壁纸 | 4K MV 怎么播放4K视频 | 4K电视演示片

教你玩转4K私人与家庭影院存储 NAS组装 | 黑群辉 家庭/影院Nas论坛

4K家庭影院信号源与视频设备知识 4K蓝光高清播放机 - 那个品牌好? 4K投影机论坛 | 4K电视机论坛

手把手教你搭建属于自己的家庭影院 4K家庭影院案例 | 家庭影院音频 4K家庭影院论坛

查看: 83|回复: 2

[犯罪片] 亚迪 Yardie.2018.1080p.BluRay.REMUX.AVC.DTS-HD.MA.5.1-FGT 23.55GB

[复制链接]

 成长值: 70

级别:资源管理组

UID
1
注册时间
2017-10-20
最后登录
2019-1-17
听众
0
收听
0
主题
73857
蓝光币
114324 枚
贡献
143666 点
发表于 2018-12-25 22:00:46 | 显示全部楼层 |阅读模式

亚迪 Yardie.2018.1080p.BluRay.REMUX.AVC.DTS-HD.MA.5.1-FGT 23.55GB-1.jpg
◎译  名 亚迪
◎片  名 亚迪 Yardie
◎年  代 2018
◎国  家 英国
◎类  别 犯罪
◎语  言 英语
◎上映日期 2018-01-20(圣丹斯电影节) / 2018-08-24(英国)
◎IMDb评分  5.8/10 from 921 users
◎IMDb链接  http://www.imdb.com/title/tt5862902/
◎豆瓣评分 今朝无人评价
◎豆瓣链接 https://movie.douban.com/subject/26831506/
◎片  长 101分钟
◎导  演 伊德里斯·艾尔巴
◎主  演 阿梅尔·艾米恩
      斯蒂芬·格拉汉姆
      弗雷泽·杰姆斯
      马克·史姑娘
      阿金·加齐
      娜奥米·阿基
      贾马恩·亨特
      Calvin Demba
      Fran Targ
      Karl Farrer

◎简  介 

  该片聚焦牙买加人和他们在伦敦的生活,报告1970、80年月,一个名叫D的牙买加黑人青年在充溢着枪击、毒品销售的街区长大,从小由于哥哥被枪杀而深受危险。就在D由于音乐而眼看要离开犯罪生活时,他遇上了杀死哥哥的男人,致使他与伦敦一位无恶不作的黑帮头子Rico杠上了……


  1. Video
  2. ID                                       : 1
  3. Format                                   : AVC
  4. Format/Info                              : Advanced Video Codec
  5. Format profile                           : [url=/cdn-cgi/l/email-protection][email protected][/url]
  6. Format settings                          : CABAC / 4 Ref Frames
  7. Format settings, CABAC                   : Yes
  8. Format settings, ReFrames                : 4 frames
  9. Codec ID                                 : V_MPEG4/ISO/AVC
  10. Duration                                 : 1 h 41 min
  11. Bit rate mode                            : Variable
  12. Bit rate                                 : 25.6 Mb/s
  13. Maximum bit rate                         : 30.0 Mb/s
  14. Width                                    : 1 920 pixels
  15. Height                                   : 1 080 pixels
  16. Display aspect ratio                     : 16:9
  17. Frame rate mode                          : Constant
  18. Frame rate                               : 24.000 FPS
  19. Color space                              : YUV
  20. Chroma subsampling                       : 4:2:0
  21. Bit depth                                : 8 bits
  22. Scan type                                : Progressive
  23. Bits/(Pixel*Frame)                       : 0.514
  24. Stream size                              : 18.2 GiB (77%)
  25. Title                                    : Yardie.2018.1080p.BluRay.REMUX.AVC.DTS-HD.MA.5.1-FGT
  26. Language                                 : English
  27. Default                                  : No
  28. Forced                                   : No

  29. Audio #1
  30. ID                                       : 2
  31. Format                                   : DTS XLL
  32. Format/Info                              : Digital Theater Systems
  33. Commercial name                          : DTS-HD Master Audio
  34. Codec ID                                 : A_DTS
  35. Duration                                 : 1 h 41 min
  36. Bit rate mode                            : Variable
  37. Bit rate                                 : 3 754 kb/s
  38. Channel(s)                               : 6 channels
  39. Channel layout                           : C L R Ls Rs LFE
  40. Sampling rate                            : 48.0 kHz
  41. Frame rate                               : 93.750 FPS (512 SPF)
  42. Bit depth                                : 24 bits
  43. Compression mode                         : Lossless
  44. Stream size                              : 2.67 GiB (11%)
  45. Title                                    : Yardie.2018.1080p.BluRay.REMUX.AVC.DTS-HD.MA.5.1-FGT
  46. Language                                 : English
  47. Default                                  : Yes
  48. Forced                                   : No

  49. Audio #2
  50. ID                                       : 3
  51. Format                                   : DTS
  52. Format/Info                              : Digital Theater Systems
  53. Codec ID                                 : A_DTS
  54. Duration                                 : 1 h 41 min
  55. Bit rate mode                            : Constant
  56. Bit rate                                 : 1 509 kb/s
  57. Channel(s)                               : 6 channels
  58. Channel layout                           : C L R Ls Rs LFE
  59. Sampling rate                            : 48.0 kHz
  60. Frame rate                               : 93.750 FPS (512 SPF)
  61. Bit depth                                : 24 bits
  62. Compression mode                         : Lossy
  63. Stream size                              : 1.07 GiB (5%)
  64. Title                                    : Yardie.2018.1080p.BluRay.REMUX.AVC.DTS-HD.MA.5.1-FGT
  65. Language                                 : English
  66. Default                                  : No
  67. Forced                                   : No

  68. Audio #3
  69. ID                                       : 4
  70. Format                                   : PCM
  71. Format settings                          : Little / Signed
  72. Codec ID                                 : A_PCM/INT/LIT
  73. Duration                                 : 1 h 41 min
  74. Bit rate mode                            : Constant
  75. Bit rate                                 : 2 304 kb/s
  76. Channel(s)                               : 2 channels
  77. Sampling rate                            : 48.0 kHz
  78. Frame rate                               : 30.000 FPS (1600 SPF)
  79. Bit depth                                : 24 bits
  80. Stream size                              : 1.64 GiB (7%)
  81. Title                                    : Yardie.2018.1080p.BluRay.REMUX.AVC.DTS-HD.MA.5.1-FGT
  82. Language                                 : English
  83. Default                                  : No
  84. Forced                                   : No

  85. Text
  86. ID                                       : 5
  87. Format                                   : PGS
  88. Muxing mode                              : zlib
  89. Codec ID                                 : S_HDMV/PGS
  90. Codec ID/Info                            : Picture based subtitle format used on BDs/HD-DVDs
  91. Duration                                 : 1 h 34 min
  92. Bit rate                                 : 38.5 kb/s
  93. Count of elements                        : 2498
  94. Stream size                              : 26.1 MiB (0%)
  95. Title                                    : English-PGS
  96. Language                                 : English
  97. Default                                  : Yes
  98. Forced                                   : No

  99. Menu
  100. 00:00:00.000                             : en:Chapter 01
  101. 00:09:15.083                             : en:Chapter 02
  102. 00:15:07.958                             : en:Chapter 03
  103. 00:23:05.166                             : en:Chapter 04
  104. 00:33:07.916                             : en:Chapter 05
  105. 00:43:47.666                             : en:Chapter 06
  106. 00:53:34.166                             : en:Chapter 07
  107. 00:59:48.833                             : en:Chapter 08
  108. 01:06:19.541                             : en:Chapter 09
  109. 01:20:51.666                             : en:Chapter 10
  110. 01:29:15.208                             : en:Chapter 11
  111. 01:34:55.708                             : en:Chapter 12
复制代码

复制代码

亚迪 Yardie.2018.1080p.BluRay.REMUX.AVC.DTS-HD.MA.5.1-FGT 23.55GB-2.png 亚迪 Yardie.2018.1080p.BluRay.REMUX.AVC.DTS-HD.MA.5.1-FGT 23.55GB-3.png 亚迪 Yardie.2018.1080p.BluRay.REMUX.AVC.DTS-HD.MA.5.1-FGT 23.55GB-4.png





回复

使用道具 举报

级别:普通观众 Lv.2

UID
11912
注册时间
2018-12-11
最后登录
2019-1-17
听众
0
收听
0
主题
0
蓝光币
101 枚
贡献
0 点
QQ
发表于 2018-12-26 08:23:29 | 显示全部楼层
谢谢分享!!!!
回复

使用道具 举报

级别:专业龙套 Lv.4

UID
4064
注册时间
2018-5-27
最后登录
2019-1-13
听众
3
收听
0
主题
0
蓝光币
1 枚
贡献
0 点
发表于 6 天前 | 显示全部楼层
感谢分享!
回复

使用道具 举报

懒得打字嘛,点击右侧快捷回复 【右侧内容,后台自定义】
您需要登录后才可以回帖 登录 | 立即注册

本版积分规则

QQ|Archiver|手机版|小黑屋|中国高清网 |网站地图

GMT+8, 2019-1-17 12:22 , Processed in 0.134426 second(s), 42 queries .

Powered by HDchina X3.4

Copyright 2017-2018©HDchina.All right reserved

返回顶部 联系我们