你所知道的4K资源这里全部都有 4K电影 | 4K视频 | 4K壁纸 | 4K MV 怎么播放4K视频 | 4K电视演示片

教你玩转4K私人与家庭影院存储 NAS组装 | 黑群辉 家庭/影院Nas论坛

4K家庭影院信号源与视频设备知识 4K蓝光高清播放机 - 那个品牌好? 4K投影机论坛 | 4K电视机论坛

手把手教你搭建属于自己的家庭影院 4K家庭影院案例 | 家庭影院音频 4K家庭影院论坛

查看: 718|回复: 1

[剧情片] 龙拳 Dragon.Fist.1979.CHINESE.1080p.BluRay.REMUX.AVC.DTS-HD.MA.5.1-FGT 29.34GB

[复制链接]

 成长值: 1380

级别:资源管理组

注册时间
2017-10-20
最后登录
2019-5-26
听众
0
收听
0
主题
77703
蓝光币
19884 枚
贡献
2024 点
发表于 2018-12-21 10:43:41 | 显示全部楼层 |阅读模式

龙拳 Dragon.Fist.1979.CHINESE.1080p.BluRay.REMUX.AVC.DTS-HD.MA.5.1-FGT 29.34GB-1.jpg
◎译  名 龙拳 / Long quan / Dragon Fist / In Eagle Dragon Fist
◎片  名 龙拳
◎年  代 1979
◎国  家 香港 / 台湾
◎类  别 剧情 / 行动
◎语  言 汉语普通话
◎上映日期 1979-04-21
◎IMDb评分  6.3/10 from 1,599 users
◎IMDb链接  http://www.imdb.com/title/tt0079484/
◎豆瓣评分 6.3/10 from 1699 users
◎豆瓣链接 https://movie.douban.com/subject/1299487/
◎片  长 Argentina: 80 分钟 / UK: 94 分钟 / USA: 76 分钟(DVD) / Finland: 94 分钟
◎导  演 罗维 (Wei Lo)
◎主  演 成龙
      田俊
      苗可秀

◎简  介 

  唐山武馆馆主庄三太在武林交锋中胜出,获得武林至尊匾,此时,百胜道场钟鉴均(任世官 饰)登门应战。因忠、庄二人在十八年前为争取钟夫人结下冤仇,钟鉴均痛下杀手,用特技三弹腿将庄三太重伤致死。庄三太高徒唐浩云(成龙 饰)与师母和师妹(苗可秀 饰)自此浪迹天涯,矢志复仇。而钟夫人因丈夫动手狠毒,以死相劝,钟鉴均怜惜爱妻之死,将“百胜”改成“百忍”。三年以后,百忍道场深得村民信赖,邻近的朱门魏家横行乡里,百忍道场受村民所托缉捕魏家的恶仆,恰在此时,武功精进的唐浩云赶赴百忍道场寻仇,一心赎罪的钟鉴均无意抵挡,唐浩云只得干休,而魏家此时却设想圈套,要借唐浩云之手杀戮钟鉴均……


  1. Video
  2. ID                                       : 1
  3. Format                                   : AVC
  4. Format/Info                              : Advanced Video Codec
  5. Format profile                           : [url=/cdn-cgi/l/email-protection][email protected][/url]
  6. Format settings                          : CABAC / 4 Ref Frames
  7. Format settings, CABAC                   : Yes
  8. Format settings, ReFrames                : 4 frames
  9. Codec ID                                 : V_MPEG4/ISO/AVC
  10. Duration                                 : 1 h 36 min
  11. Bit rate mode                            : Variable
  12. Bit rate                                 : 25.0 Mb/s
  13. Maximum bit rate                         : 30.0 Mb/s
  14. Width                                    : 1 920 pixels
  15. Height                                   : 1 080 pixels
  16. Display aspect ratio                     : 16:9
  17. Frame rate mode                          : Constant
  18. Frame rate                               : 23.976 (24000/1001) FPS
  19. Standard                                 : Component
  20. Color space                              : YUV
  21. Chroma subsampling                       : 4:2:0
  22. Bit depth                                : 8 bits
  23. Scan type                                : Progressive
  24. Bits/(Pixel*Frame)                       : 0.503
  25. Stream size                              : 16.9 GiB (57%)
  26. Title                                    : Dragon.Fist.1979.CHINESE.1080p.BluRay.REMUX.AVC.DTS-HD.MA.5.1-FGT
  27. Writing library                          : x264 core 148
  28. Encoding settings                        : cabac=1 / ref=4 / deblock=1:0:0 / analyse=0x3:0x113 / me=hex / subme=7 / psy=1 / psy_rd=1.00:0.00 / mixed_ref=1 / me_range=16 / chroma_me=1 / trellis=1 / 8x8dct=1 / cqm=1 / deadzone=21,11 / fast_pskip=1 / chroma_qp_offset=-2 / threads=6 / lookahead_threads=1 / sliced_threads=0 / slices=4 / nr=0 / decimate=1 / interlaced=0 / minigop=1 / stitchable=1 / constrained_intra=0 / bframes=2 / b_pyramid=0 / b_adapt=1 / b_bias=0 / direct=1 / weightb=1 / open_gop=1 / weightp=1 / keyint=24 / keyint_min=1 / scenecut=40 / intra_refresh=0 / rc_lookahead=24 / rc=2pass / mbtree=1 / bitrate=25000 / ratetol=1.0 / qcomp=0.60 / qpmin=3 / qpmax=69 / qpstep=4 / cplxblur=20.0 / qblur=0.5 / vbv_maxrate=30000 / vbv_bufsize=30000 / nal_hrd=vbr / filler=0 / ip_ratio=1.40 / aq=1:1.00
  29. Language                                 : English
  30. Default                                  : No
  31. Forced                                   : No
  32. Color range                              : Limited
  33. Color primaries                          : BT.709
  34. Transfer characteristics                 : BT.709
  35. Matrix coefficients                      : BT.709

  36. Audio #1
  37. ID                                       : 2
  38. Format                                   : DTS XLL
  39. Format/Info                              : Digital Theater Systems
  40. Commercial name                          : DTS-HD Master Audio
  41. Codec ID                                 : A_DTS
  42. Duration                                 : 1 h 36 min
  43. Bit rate mode                            : Variable
  44. Bit rate                                 : 3 774 kb/s
  45. Channel(s)                               : 6 channels
  46. Channel layout                           : C L R Ls Rs LFE
  47. Sampling rate                            : 48.0 kHz
  48. Frame rate                               : 93.750 FPS (512 SPF)
  49. Bit depth                                : 24 bits
  50. Compression mode                         : Lossless
  51. Stream size                              : 2.55 GiB (9%)
  52. Title                                    : Dragon.Fist.1979.CHINESE.1080p.BluRay.REMUX.AVC.DTS-HD.MA.5.1-FGT
  53. Language                                 : English
  54. Default                                  : No
  55. Forced                                   : No

  56. Audio #2
  57. ID                                       : 3
  58. Format                                   : DTS XLL
  59. Format/Info                              : Digital Theater Systems
  60. Commercial name                          : DTS-HD Master Audio
  61. Codec ID                                 : A_DTS
  62. Duration                                 : 1 h 36 min
  63. Bit rate mode                            : Variable
  64. Bit rate                                 : 3 995 kb/s
  65. Channel(s)                               : 6 channels
  66. Channel layout                           : C L R Ls Rs LFE
  67. Sampling rate                            : 48.0 kHz
  68. Frame rate                               : 93.750 FPS (512 SPF)
  69. Bit depth                                : 24 bits
  70. Compression mode                         : Lossless
  71. Stream size                              : 2.70 GiB (9%)
  72. Title                                    : Dragon.Fist.1979.CHINESE.1080p.BluRay.REMUX.AVC.DTS-HD.MA.5.1-FGT
  73. Language                                 : Chinese
  74. Default                                  : Yes
  75. Forced                                   : No

  76. Audio #3
  77. ID                                       : 4
  78. Format                                   : DTS
  79. Format/Info                              : Digital Theater Systems
  80. Codec ID                                 : A_DTS
  81. Duration                                 : 1 h 36 min
  82. Bit rate mode                            : Constant
  83. Bit rate                                 : 1 509 kb/s
  84. Channel(s)                               : 6 channels
  85. Channel layout                           : C L R Ls Rs LFE
  86. Sampling rate                            : 48.0 kHz
  87. Frame rate                               : 93.750 FPS (512 SPF)
  88. Bit depth                                : 24 bits
  89. Compression mode                         : Lossy
  90. Stream size                              : 1.02 GiB (3%)
  91. Title                                    : Dragon.Fist.1979.CHINESE.1080p.BluRay.REMUX.AVC.DTS-HD.MA.5.1-FGT
  92. Language                                 : Chinese
  93. Default                                  : No
  94. Forced                                   : No

  95. Audio #4
  96. ID                                       : 5
  97. Format                                   : DTS
  98. Format/Info                              : Digital Theater Systems
  99. Codec ID                                 : A_DTS
  100. Duration                                 : 1 h 36 min
  101. Bit rate mode                            : Constant
  102. Bit rate                                 : 768 kb/s
  103. Channel(s)                               : 1 channel
  104. Channel layout                           : C
  105. Sampling rate                            : 48.0 kHz
  106. Frame rate                               : 93.750 FPS (512 SPF)
  107. Bit depth                                : 24 bits
  108. Compression mode                         : Lossy
  109. Stream size                              : 532 MiB (2%)
  110. Title                                    : Dragon.Fist.1979.CHINESE.1080p.BluRay.REMUX.AVC.DTS-HD.MA.5.1-FGT
  111. Language                                 : Chinese
  112. Default                                  : No
  113. Forced                                   : No

  114. Audio #5
  115. ID                                       : 6
  116. Format                                   : DTS XLL
  117. Format/Info                              : Digital Theater Systems
  118. Commercial name                          : DTS-HD Master Audio
  119. Codec ID                                 : A_DTS
  120. Duration                                 : 1 h 36 min
  121. Bit rate mode                            : Variable
  122. Bit rate                                 : 3 787 kb/s
  123. Channel(s)                               : 6 channels
  124. Channel layout                           : C L R Ls Rs LFE
  125. Sampling rate                            : 48.0 kHz
  126. Frame rate                               : 93.750 FPS (512 SPF)
  127. Bit depth                                : 24 bits
  128. Compression mode                         : Lossless
  129. Stream size                              : 2.56 GiB (9%)
  130. Title                                    : Dragon.Fist.1979.CHINESE.1080p.BluRay.REMUX.AVC.DTS-HD.MA.5.1-FGT
  131. Language                                 : Chinese
  132. Default                                  : No
  133. Forced                                   : No

  134. Audio #6
  135. ID                                       : 7
  136. Format                                   : DTS
  137. Format/Info                              : Digital Theater Systems
  138. Codec ID                                 : A_DTS
  139. Duration                                 : 1 h 36 min
  140. Bit rate mode                            : Constant
  141. Bit rate                                 : 1 509 kb/s
  142. Channel(s)                               : 6 channels
  143. Channel layout                           : C L R Ls Rs LFE
  144. Sampling rate                            : 48.0 kHz
  145. Frame rate                               : 93.750 FPS (512 SPF)
  146. Bit depth                                : 24 bits
  147. Compression mode                         : Lossy
  148. Stream size                              : 1.02 GiB (3%)
  149. Title                                    : Dragon.Fist.1979.CHINESE.1080p.BluRay.REMUX.AVC.DTS-HD.MA.5.1-FGT
  150. Language                                 : Chinese
  151. Default                                  : No
  152. Forced                                   : No

  153. Audio #7
  154. ID                                       : 8
  155. Format                                   : DTS
  156. Format/Info                              : Digital Theater Systems
  157. Codec ID                                 : A_DTS
  158. Duration                                 : 1 h 36 min
  159. Bit rate mode                            : Constant
  160. Bit rate                                 : 768 kb/s
  161. Channel(s)                               : 1 channel
  162. Channel layout                           : C
  163. Sampling rate                            : 48.0 kHz
  164. Frame rate                               : 93.750 FPS (512 SPF)
  165. Bit depth                                : 24 bits
  166. Compression mode                         : Lossy
  167. Stream size                              : 532 MiB (2%)
  168. Title                                    : Dragon.Fist.1979.CHINESE.1080p.BluRay.REMUX.AVC.DTS-HD.MA.5.1-FGT
  169. Language                                 : Chinese
  170. Default                                  : No
  171. Forced                                   : No

  172. Audio #8
  173. ID                                       : 9
  174. Format                                   : DTS
  175. Format/Info                              : Digital Theater Systems
  176. Codec ID                                 : A_DTS
  177. Duration                                 : 1 h 36 min
  178. Bit rate mode                            : Constant
  179. Bit rate                                 : 1 509 kb/s
  180. Channel(s)                               : 6 channels
  181. Channel layout                           : C L R Ls Rs LFE
  182. Sampling rate                            : 48.0 kHz
  183. Frame rate                               : 93.750 FPS (512 SPF)
  184. Bit depth                                : 24 bits
  185. Compression mode                         : Lossy
  186. Stream size                              : 1.02 GiB (3%)
  187. Title                                    : Dragon.Fist.1979.CHINESE.1080p.BluRay.REMUX.AVC.DTS-HD.MA.5.1-FGT
  188. Language                                 : English
  189. Default                                  : No
  190. Forced                                   : No

  191. Audio #9
  192. ID                                       : 10
  193. Format                                   : DTS
  194. Format/Info                              : Digital Theater Systems
  195. Codec ID                                 : A_DTS
  196. Duration                                 : 1 h 36 min
  197. Bit rate mode                            : Constant
  198. Bit rate                                 : 768 kb/s
  199. Channel(s)                               : 1 channel
  200. Channel layout                           : C
  201. Sampling rate                            : 48.0 kHz
  202. Frame rate                               : 93.750 FPS (512 SPF)
  203. Bit depth                                : 24 bits
  204. Compression mode                         : Lossy
  205. Stream size                              : 532 MiB (2%)
  206. Title                                    : Dragon.Fist.1979.CHINESE.1080p.BluRay.REMUX.AVC.DTS-HD.MA.5.1-FGT
  207. Language                                 : English
  208. Default                                  : No
  209. Forced                                   : No

  210. Text #1
  211. ID                                       : 11
  212. Format                                   : PGS
  213. Muxing mode                              : zlib
  214. Codec ID                                 : S_HDMV/PGS
  215. Codec ID/Info                            : Picture based subtitle format used on BDs/HD-DVDs
  216. Duration                                 : 44 min 12 s
  217. Bit rate                                 : 1 291 b/s
  218. Count of elements                        : 26
  219. Stream size                              : 418 KiB (0%)
  220. Title                                    : English-PGS
  221. Language                                 : English
  222. Default                                  : Yes
  223. Forced                                   : No

  224. Text #2
  225. ID                                       : 12
  226. Format                                   : PGS
  227. Muxing mode                              : zlib
  228. Codec ID                                 : S_HDMV/PGS
  229. Codec ID/Info                            : Picture based subtitle format used on BDs/HD-DVDs
  230. Duration                                 : 1 h 34 min
  231. Bit rate                                 : 33.2 kb/s
  232. Count of elements                        : 1988
  233. Stream size                              : 22.4 MiB (0%)
  234. Title                                    : English-SDH-PGS
  235. Language                                 : English
  236. Default                                  : No
  237. Forced                                   : No

  238. Text #3
  239. ID                                       : 13
  240. Format                                   : PGS
  241. Muxing mode                              : zlib
  242. Codec ID                                 : S_HDMV/PGS
  243. Codec ID/Info                            : Picture based subtitle format used on BDs/HD-DVDs
  244. Duration                                 : 1 h 34 min
  245. Bit rate                                 : 32.9 kb/s
  246. Count of elements                        : 1976
  247. Stream size                              : 22.1 MiB (0%)
  248. Title                                    : English-PGS
  249. Language                                 : English
  250. Default                                  : No
  251. Forced                                   : No

  252. Menu
  253. 00:00:00.000                             : en:Chapter 01
  254. 00:05:03.761                             : en:Chapter 02
  255. 00:10:49.899                             : en:Chapter 03
  256. 00:20:27.893                             : en:Chapter 04
  257. 00:32:45.004                             : en:Chapter 05
  258. 00:43:17.678                             : en:Chapter 06
  259. 00:55:33.371                             : en:Chapter 07
  260. 01:07:13.029                             : en:Chapter 08
  261. 01:15:48.168                             : en:Chapter 09
  262. 01:26:49.412                             : en:Chapter 10
  263. 01:36:51.013                             : en:Chapter 11
复制代码

复制代码

龙拳 Dragon.Fist.1979.CHINESE.1080p.BluRay.REMUX.AVC.DTS-HD.MA.5.1-FGT 29.34GB-2.png 龙拳 Dragon.Fist.1979.CHINESE.1080p.BluRay.REMUX.AVC.DTS-HD.MA.5.1-FGT 29.34GB-3.png 龙拳 Dragon.Fist.1979.CHINESE.1080p.BluRay.REMUX.AVC.DTS-HD.MA.5.1-FGT 29.34GB-4.png





回复

使用道具 举报

级别:荣升主角 Lv.5

注册时间
2018-5-27
最后登录
2019-5-26
听众
6
收听
0
主题
0
蓝光币
77 枚
贡献
0 点
发表于 2019-1-11 21:04:26 | 显示全部楼层
感谢分享!
回复

使用道具 举报

*滑动验证:
懒得打字嘛,点击右侧快捷回复 【右侧内容,后台自定义】
您需要登录后才可以回帖 登录 | 立即注册

本版积分规则

QQ|Archiver|手机版|小黑屋| 中国高清网  |网站地图

GMT+8, 2019-5-27 01:35 , Processed in 0.269422 second(s), 44 queries .

Powered by HDchina X3.4

Copyright 2017-2019©HDchina.All right reserved

返回顶部 联系我们