你所知道的4K资源这里全部都有 4K电影 | 4K视频 | 4K壁纸 | 4K MV 怎么播放4K视频 | 4K电视演示片

教你玩转4K私人与家庭影院存储 NAS组装 | 黑群辉 家庭/影院Nas论坛

4K家庭影院信号源与视频设备知识 4K蓝光高清播放机 - 那个品牌好? 4K投影机论坛 | 4K电视机论坛

手把手教你搭建属于自己的家庭影院 4K家庭影院案例 | 家庭影院音频 4K家庭影院论坛

查看: 154|回复: 4

[科幻片] 等待指示 Await.Further.Instructions.2018.1080p.BluRay.REMUX.AVC.DTS-HD.MA.5.1-FGT 22.19GB

[复制链接]

 成长值: 1380

级别:资源管理组

注册时间
2017-10-20
最后登录
2019-5-27
听众
0
收听
0
主题
77703
蓝光币
19886 枚
贡献
2024 点
发表于 2018-12-16 11:57:52 | 显示全部楼层 |阅读模式

期待指示 Await.Further.Instructions.2018.1080p.BluRay.REMUX.AVC.DTS-HD.MA.5.1-FGT 22.19GB-1.jpg
◎译  名 期待指示
◎片  名 期待指示 Await Further Instructions
◎年  代 2017
◎国  家 英国
◎类  别 科幻 / 悬疑 / 可骇
◎语  言 英语
◎上映日期 2018-10-05(美国)
◎IMDb评分  4.9/10 from 1,724 users
◎IMDb链接  http://www.imdb.com/title/tt4971408/
◎豆瓣评分 4.9/10 from 393 users
◎豆瓣链接 https://movie.douban.com/subject/26964179/
◎片  长 91分钟
◎导  演 Johnny Kevorkian
◎主  演 大卫·布拉德利
      Abigail Cruttenden
      Neerja Naik

◎简  介 

  圣诞节,米格兰一家发现百口已被奥秘的金属物资包围,但究竟是什么,产业变乱?可骇攻击?核战争?在电视机上出现了“进一步的指示”,他们依照电视机的指示,展开了血腥的屠杀…


  1. Video
  2. ID                                       : 1
  3. Format                                   : AVC
  4. Format/Info                              : Advanced Video Codec
  5. Format profile                           : [url=/cdn-cgi/l/email-protection][email protected][/url]
  6. Format settings                          : CABAC / 4 Ref Frames
  7. Format settings, CABAC                   : Yes
  8. Format settings, ReFrames                : 4 frames
  9. Format settings, GOP                     : M=3, N=24
  10. Codec ID                                 : V_MPEG4/ISO/AVC
  11. Duration                                 : 1 h 30 min
  12. Bit rate mode                            : Variable
  13. Bit rate                                 : 30.0 Mb/s
  14. Maximum bit rate                         : 35.0 Mb/s
  15. Width                                    : 1 920 pixels
  16. Height                                   : 1 080 pixels
  17. Display aspect ratio                     : 16:9
  18. Frame rate mode                          : Constant
  19. Frame rate                               : 23.976 (24000/1001) FPS
  20. Standard                                 : NTSC
  21. Color space                              : YUV
  22. Chroma subsampling                       : 4:2:0
  23. Bit depth                                : 8 bits
  24. Scan type                                : Progressive
  25. Bits/(Pixel*Frame)                       : 0.603
  26. Stream size                              : 19.0 GiB (86%)
  27. Title                                    : Await.Further.Instructions.2018.1080p.BluRay.REMUX.AVC.DTS-HD.MA.5.1-FGT
  28. Language                                 : English
  29. Default                                  : No
  30. Forced                                   : No
  31. Color range                              : Limited
  32. Color primaries                          : BT.709
  33. Transfer characteristics                 : BT.709
  34. Matrix coefficients                      : BT.709

  35. Audio #1
  36. ID                                       : 2
  37. Format                                   : DTS XLL
  38. Format/Info                              : Digital Theater Systems
  39. Commercial name                          : DTS-HD Master Audio
  40. Codec ID                                 : A_DTS
  41. Duration                                 : 1 h 30 min
  42. Bit rate mode                            : Variable
  43. Bit rate                                 : 1 963 kb/s
  44. Channel(s)                               : 6 channels
  45. Channel layout                           : C L R Ls Rs LFE
  46. Sampling rate                            : 48.0 kHz
  47. Frame rate                               : 93.750 FPS (512 SPF)
  48. Bit depth                                : 16 bits
  49. Compression mode                         : Lossless
  50. Stream size                              : 1.24 GiB (6%)
  51. Title                                    : Await.Further.Instructions.2018.1080p.BluRay.REMUX.AVC.DTS-HD.MA.5.1-FGT
  52. Language                                 : English
  53. Default                                  : Yes
  54. Forced                                   : No

  55. Audio #2
  56. ID                                       : 3
  57. Format                                   : DTS
  58. Format/Info                              : Digital Theater Systems
  59. Codec ID                                 : A_DTS
  60. Duration                                 : 1 h 30 min
  61. Bit rate mode                            : Constant
  62. Bit rate                                 : 1 509 kb/s
  63. Channel(s)                               : 6 channels
  64. Channel layout                           : C L R Ls Rs LFE
  65. Sampling rate                            : 48.0 kHz
  66. Frame rate                               : 93.750 FPS (512 SPF)
  67. Bit depth                                : 16 bits
  68. Compression mode                         : Lossy
  69. Stream size                              : 979 MiB (4%)
  70. Title                                    : Await.Further.Instructions.2018.1080p.BluRay.REMUX.AVC.DTS-HD.MA.5.1-FGT
  71. Language                                 : English
  72. Default                                  : No
  73. Forced                                   : No

  74. Audio #3
  75. ID                                       : 4
  76. Format                                   : PCM
  77. Format settings                          : Little / Signed
  78. Codec ID                                 : A_PCM/INT/LIT
  79. Duration                                 : 1 h 30 min
  80. Bit rate mode                            : Constant
  81. Bit rate                                 : 1 536 kb/s
  82. Channel(s)                               : 2 channels
  83. Sampling rate                            : 48.0 kHz
  84. Frame rate                               : 30.000 FPS (1600 SPF)
  85. Bit depth                                : 16 bits
  86. Stream size                              : 997 MiB (4%)
  87. Title                                    : Await.Further.Instructions.2018.1080p.BluRay.REMUX.AVC.DTS-HD.MA.5.1-FGT
  88. Language                                 : English
  89. Default                                  : No
  90. Forced                                   : No

  91. Text
  92. ID                                       : 5
  93. Format                                   : PGS
  94. Muxing mode                              : zlib
  95. Codec ID                                 : S_HDMV/PGS
  96. Codec ID/Info                            : Picture based subtitle format used on BDs/HD-DVDs
  97. Duration                                 : 1 h 27 min
  98. Bit rate                                 : 34.2 kb/s
  99. Count of elements                        : 2294
  100. Stream size                              : 21.3 MiB (0%)
  101. Title                                    : English-PGS
  102. Language                                 : English
  103. Default                                  : Yes
  104. Forced                                   : No

  105. Menu
  106. 00:00:00.000                             : en:Chapter 01
  107. 00:04:28.601                             : en:Chapter 02
  108. 00:07:39.459                             : en:Chapter 03
  109. 00:11:36.362                             : en:Chapter 04
  110. 00:15:53.410                             : en:Chapter 05
  111. 00:19:21.326                             : en:Chapter 06
  112. 00:22:12.539                             : en:Chapter 07
  113. 00:26:12.696                             : en:Chapter 08
  114. 00:29:52.624                             : en:Chapter 09
  115. 00:32:28.988                             : en:Chapter 10
  116. 00:35:53.526                             : en:Chapter 11
  117. 00:39:23.444                             : en:Chapter 12
  118. 00:43:51.754                             : en:Chapter 13
  119. 00:47:59.710                             : en:Chapter 14
  120. 00:51:43.850                             : en:Chapter 15
  121. 00:54:08.995                             : en:Chapter 16
  122. 00:58:35.220                             : en:Chapter 17
  123. 01:02:41.883                             : en:Chapter 18
  124. 01:05:47.276                             : en:Chapter 19
  125. 01:08:24.725                             : en:Chapter 20
  126. 01:12:43.025                             : en:Chapter 21
  127. 01:16:06.353                             : en:Chapter 22
  128. 01:19:23.216                             : en:Chapter 23
  129. 01:22:09.841                             : en:Chapter 24
  130. 01:27:47.262                             : en:Chapter 25
复制代码

复制代码

期待指示 Await.Further.Instructions.2018.1080p.BluRay.REMUX.AVC.DTS-HD.MA.5.1-FGT 22.19GB-2.png 期待指示 Await.Further.Instructions.2018.1080p.BluRay.REMUX.AVC.DTS-HD.MA.5.1-FGT 22.19GB-3.png 期待指示 Await.Further.Instructions.2018.1080p.BluRay.REMUX.AVC.DTS-HD.MA.5.1-FGT 22.19GB-4.png





回复

使用道具 举报

级别:群众演员 Lv.3

注册时间
2018-2-11
最后登录
2019-4-12
听众
4
收听
0
主题
0
蓝光币
33 枚
贡献
0 点
QQ
发表于 2018-12-22 01:10:02 | 显示全部楼层

这个帖子不回对不起自己!我想我是一天也不能离开中国高清电影网
回复

使用道具 举报

级别:初级观众 Lv.1

注册时间
2018-12-27
最后登录
2018-12-27
听众
2
收听
0
主题
0
蓝光币
1 枚
贡献
0 点
QQ
发表于 2018-12-27 15:40:53 | 显示全部楼层
楼主发贴辛苦了,谢谢楼主分享!我觉得中国高清电影网是注册对了!
回复

使用道具 举报

级别:初级观众 Lv.1

注册时间
2018-12-27
最后登录
2018-12-27
听众
2
收听
0
主题
0
蓝光币
1 枚
贡献
0 点
QQ
发表于 2018-12-27 15:41:42 | 显示全部楼层

这个帖子不回对不起自己!我想我是一天也不能离开中国高清电影网
回复

使用道具 举报

级别:荣升主角 Lv.5

注册时间
2018-5-27
最后登录
2019-5-26
听众
6
收听
0
主题
0
蓝光币
77 枚
贡献
0 点
发表于 2019-1-11 21:00:46 | 显示全部楼层
感谢分享!
回复

使用道具 举报

*滑动验证:
懒得打字嘛,点击右侧快捷回复 【右侧内容,后台自定义】
您需要登录后才可以回帖 登录 | 立即注册

本版积分规则

QQ|Archiver|手机版|小黑屋| 中国高清网  |网站地图

GMT+8, 2019-5-27 02:12 , Processed in 0.172151 second(s), 47 queries .

Powered by HDchina X3.4

Copyright 2017-2019©HDchina.All right reserved

返回顶部 联系我们