你所知道的4K资源这里全部都有 4K电影 | 4K视频 | 4K壁纸 | 4K MV 怎么播放4K视频 | 4K电视演示片

教你玩转4K私人与家庭影院存储 NAS组装 | 黑群辉 家庭/影院Nas论坛

4K家庭影院信号源与视频设备知识 4K蓝光高清播放机 - 那个品牌好? 4K投影机论坛 | 4K电视机论坛

手把手教你搭建属于自己的家庭影院 4K家庭影院案例 | 家庭影院音频 4K家庭影院论坛

查看: 54|回复: 0

[剧情片] 坚不可摧:救赎之路 Unbroken.Path.To.Redemption.2018.1080p.BluRay.REMUX.AVC.DTS-HD.MA.5.1-FGT 29.01GB

[复制链接]

 成长值: 70

级别:资源管理组

UID
1
注册时间
2017-10-20
最后登录
2019-1-17
听众
0
收听
0
主题
73857
蓝光币
114324 枚
贡献
143666 点
发表于 2018-12-15 23:56:46 | 显示全部楼层 |阅读模式

坚不成摧:救赎之路 Unbroken.Path.To.Redemption.2018.1080p.BluRay.REMUX.AVC.DTS-HD.MA.5.1-FGT 29.01GB-1.jpg
◎译  名 坚不成摧:救赎之路
◎片  名 坚不成摧:救赎之路 Unbroken: Path to Redemption
◎年  代 2018
◎国  家 美国
◎类  别 剧情 / 列传
◎语  言 英语
◎上映日期 2018-09-14(美国)
◎IMDb评分  5.5/10 from 655 users
◎IMDb链接  http://www.imdb.com/title/tt7339792/
◎豆瓣评分 今朝无人评价
◎豆瓣链接 https://movie.douban.com/subject/30176395/
◎片  长 98分钟
◎导  演 哈洛德·科朗克
◎主  演 梅里特·帕特森
      塞缪尔·亨特
      鲍勃·冈顿
      吉娜·西蒙
      大卫·德路易斯
      威尔·格拉汉
      盖瑞·科尔
      鲍比·坎波
      瓦妮莎·贝尔·卡洛威
      安德鲁·卡德威尔
      特丽莎·拉法切
      马达莱娜·伊斯基亚勒
      大卫·樱井
      阿里·伊格尔
      温琴佐·阿马托
      詹姆斯·伊姆科斯

◎简  介 

  影片故事仍将围绕赞佩里尼(塞谬尔·亨特 饰)展 开,片中美国基督教福音传教家葛培理(威尔·格拉汉饰)也将出现。


  1. Video
  2. ID                                       : 1
  3. Format                                   : AVC
  4. Format/Info                              : Advanced Video Codec
  5. Format profile                           : [url=/cdn-cgi/l/email-protection][email protected][/url]
  6. Format settings                          : CABAC / 4 Ref Frames
  7. Format settings, CABAC                   : Yes
  8. Format settings, ReFrames                : 4 frames
  9. Codec ID                                 : V_MPEG4/ISO/AVC
  10. Duration                                 : 1 h 38 min
  11. Bit rate mode                            : Variable
  12. Bit rate                                 : 35.4 Mb/s
  13. Maximum bit rate                         : 37.0 Mb/s
  14. Width                                    : 1 920 pixels
  15. Height                                   : 1 080 pixels
  16. Display aspect ratio                     : 16:9
  17. Frame rate mode                          : Constant
  18. Frame rate                               : 23.976 (24000/1001) FPS
  19. Color space                              : YUV
  20. Chroma subsampling                       : 4:2:0
  21. Bit depth                                : 8 bits
  22. Scan type                                : Progressive
  23. Bits/(Pixel*Frame)                       : 0.712
  24. Stream size                              : 24.4 GiB (84%)
  25. Title                                    : Unbroken.Path.To.Redemption.2018.1080p.BluRay.REMUX.AVC.DTS-HD.MA.5.1-FGT
  26. Language                                 : English
  27. Default                                  : No
  28. Forced                                   : No

  29. Audio #1
  30. ID                                       : 2
  31. Format                                   : DTS XLL
  32. Format/Info                              : Digital Theater Systems
  33. Commercial name                          : DTS-HD Master Audio
  34. Codec ID                                 : A_DTS
  35. Duration                                 : 1 h 38 min
  36. Bit rate mode                            : Variable
  37. Bit rate                                 : 3 687 kb/s
  38. Channel(s)                               : 6 channels
  39. Channel layout                           : C L R Ls Rs LFE
  40. Sampling rate                            : 48.0 kHz
  41. Frame rate                               : 93.750 FPS (512 SPF)
  42. Bit depth                                : 24 bits
  43. Compression mode                         : Lossless
  44. Stream size                              : 2.54 GiB (9%)
  45. Title                                    : Unbroken.Path.To.Redemption.2018.1080p.BluRay.REMUX.AVC.DTS-HD.MA.5.1-FGT
  46. Language                                 : English
  47. Default                                  : Yes
  48. Forced                                   : No

  49. Audio #2
  50. ID                                       : 3
  51. Format                                   : DTS
  52. Format/Info                              : Digital Theater Systems
  53. Codec ID                                 : A_DTS
  54. Duration                                 : 1 h 38 min
  55. Bit rate mode                            : Constant
  56. Bit rate                                 : 1 509 kb/s
  57. Channel(s)                               : 6 channels
  58. Channel layout                           : C L R Ls Rs LFE
  59. Sampling rate                            : 48.0 kHz
  60. Frame rate                               : 93.750 FPS (512 SPF)
  61. Bit depth                                : 24 bits
  62. Compression mode                         : Lossy
  63. Stream size                              : 1.04 GiB (4%)
  64. Title                                    : Unbroken.Path.To.Redemption.2018.1080p.BluRay.REMUX.AVC.DTS-HD.MA.5.1-FGT
  65. Language                                 : English
  66. Default                                  : No
  67. Forced                                   : No

  68. Audio #3
  69. ID                                       : 4
  70. Format                                   : DTS
  71. Format/Info                              : Digital Theater Systems
  72. Codec ID                                 : A_DTS
  73. Duration                                 : 1 h 38 min
  74. Bit rate mode                            : Constant
  75. Bit rate                                 : 768 kb/s
  76. Channel(s)                               : 6 channels
  77. Channel layout                           : C L R Ls Rs LFE
  78. Sampling rate                            : 48.0 kHz
  79. Frame rate                               : 93.750 FPS (512 SPF)
  80. Bit depth                                : 24 bits
  81. Compression mode                         : Lossy
  82. Stream size                              : 541 MiB (2%)
  83. Title                                    : Unbroken.Path.To.Redemption.2018.1080p.BluRay.REMUX.AVC.DTS-HD.MA.5.1-FGT
  84. Language                                 : Spanish
  85. Default                                  : No
  86. Forced                                   : No

  87. Audio #4
  88. ID                                       : 5
  89. Format                                   : DTS
  90. Format/Info                              : Digital Theater Systems
  91. Codec ID                                 : A_DTS
  92. Duration                                 : 1 h 38 min
  93. Bit rate mode                            : Constant
  94. Bit rate                                 : 768 kb/s
  95. Channel(s)                               : 6 channels
  96. Channel layout                           : C L R Ls Rs LFE
  97. Sampling rate                            : 48.0 kHz
  98. Frame rate                               : 93.750 FPS (512 SPF)
  99. Bit depth                                : 24 bits
  100. Compression mode                         : Lossy
  101. Stream size                              : 541 MiB (2%)
  102. Title                                    : Unbroken.Path.To.Redemption.2018.1080p.BluRay.REMUX.AVC.DTS-HD.MA.5.1-FGT
  103. Language                                 : French
  104. Default                                  : No
  105. Forced                                   : No

  106. Text #1
  107. ID                                       : 6
  108. Format                                   : PGS
  109. Muxing mode                              : zlib
  110. Codec ID                                 : S_HDMV/PGS
  111. Codec ID/Info                            : Picture based subtitle format used on BDs/HD-DVDs
  112. Duration                                 : 1 h 36 min
  113. Bit rate                                 : 41.5 kb/s
  114. Count of elements                        : 2759
  115. Stream size                              : 28.6 MiB (0%)
  116. Title                                    : English-PGS
  117. Language                                 : English
  118. Default                                  : Yes
  119. Forced                                   : No

  120. Text #2
  121. ID                                       : 7
  122. Format                                   : PGS
  123. Muxing mode                              : zlib
  124. Codec ID                                 : S_HDMV/PGS
  125. Codec ID/Info                            : Picture based subtitle format used on BDs/HD-DVDs
  126. Duration                                 : 1 h 37 min
  127. Bit rate                                 : 34.5 kb/s
  128. Count of elements                        : 2446
  129. Stream size                              : 24.1 MiB (0%)
  130. Title                                    : Spanish-PGS
  131. Language                                 : Spanish
  132. Default                                  : No
  133. Forced                                   : No

  134. Text #3
  135. ID                                       : 8
  136. Format                                   : PGS
  137. Muxing mode                              : zlib
  138. Codec ID                                 : S_HDMV/PGS
  139. Codec ID/Info                            : Picture based subtitle format used on BDs/HD-DVDs
  140. Duration                                 : 1 h 37 min
  141. Bit rate                                 : 32.5 kb/s
  142. Count of elements                        : 2446
  143. Stream size                              : 22.7 MiB (0%)
  144. Title                                    : French-PGS
  145. Language                                 : French
  146. Default                                  : No
  147. Forced                                   : No

  148. Text #4
  149. ID                                       : 9
  150. Format                                   : PGS
  151. Muxing mode                              : zlib
  152. Codec ID                                 : S_HDMV/PGS
  153. Codec ID/Info                            : Picture based subtitle format used on BDs/HD-DVDs
  154. Duration                                 : 1 h 37 min
  155. Bit rate                                 : 433 b/s
  156. Count of elements                        : 38
  157. Stream size                              : 309 KiB (0%)
  158. Title                                    : Spanish-FORCED-PGS
  159. Language                                 : Spanish
  160. Default                                  : No
  161. Forced                                   : No

  162. Text #5
  163. ID                                       : 10
  164. Format                                   : PGS
  165. Muxing mode                              : zlib
  166. Codec ID                                 : S_HDMV/PGS
  167. Codec ID/Info                            : Picture based subtitle format used on BDs/HD-DVDs
  168. Duration                                 : 1 h 37 min
  169. Bit rate                                 : 2 775 b/s
  170. Count of elements                        : 158
  171. Stream size                              : 1.94 MiB (0%)
  172. Title                                    : French-FORCED-PGS
  173. Language                                 : French
  174. Default                                  : No
  175. Forced                                   : No

  176. Menu
  177. 00:00:00.000                             : en:Chapter 01
  178. 00:05:19.610                             : en:Chapter 02
  179. 00:09:29.277                             : en:Chapter 03
  180. 00:13:23.093                             : en:Chapter 04
  181. 00:17:29.590                             : en:Chapter 05
  182. 00:23:11.181                             : en:Chapter 06
  183. 00:29:01.322                             : en:Chapter 07
  184. 00:33:35.888                             : en:Chapter 08
  185. 00:37:28.371                             : en:Chapter 09
  186. 00:40:52.116                             : en:Chapter 10
  187. 00:43:27.980                             : en:Chapter 11
  188. 00:50:56.636                             : en:Chapter 12
  189. 00:56:45.568                             : en:Chapter 13
  190. 01:00:17.697                             : en:Chapter 14
  191. 01:07:33.257                             : en:Chapter 15
  192. 01:15:19.431                             : en:Chapter 16
  193. 01:20:07.260                             : en:Chapter 17
  194. 01:27:17.482                             : en:Chapter 18
  195. 01:31:52.673                             : en:Chapter 19
  196. 01:34:03.220                             : en:Chapter 20
复制代码

复制代码

坚不成摧:救赎之路 Unbroken.Path.To.Redemption.2018.1080p.BluRay.REMUX.AVC.DTS-HD.MA.5.1-FGT 29.01GB-2.png 坚不成摧:救赎之路 Unbroken.Path.To.Redemption.2018.1080p.BluRay.REMUX.AVC.DTS-HD.MA.5.1-FGT 29.01GB-3.png 坚不成摧:救赎之路 Unbroken.Path.To.Redemption.2018.1080p.BluRay.REMUX.AVC.DTS-HD.MA.5.1-FGT 29.01GB-4.png





回复

使用道具 举报

懒得打字嘛,点击右侧快捷回复 【右侧内容,后台自定义】
您需要登录后才可以回帖 登录 | 立即注册

本版积分规则

QQ|Archiver|手机版|小黑屋|中国高清网 |网站地图

GMT+8, 2019-1-17 12:20 , Processed in 0.154565 second(s), 41 queries .

Powered by HDchina X3.4

Copyright 2017-2018©HDchina.All right reserved

返回顶部 联系我们