你所知道的4K资源这里全部都有 4K电影 | 4K视频 | 4K壁纸 | 4K MV 怎么播放4K视频 | 4K电视演示片

教你玩转4K私人与家庭影院存储 NAS组装 | 黑群辉 家庭/影院Nas论坛

4K家庭影院信号源与视频设备知识 4K蓝光高清播放机 - 那个品牌好? 4K投影机论坛 | 4K电视机论坛

手把手教你搭建属于自己的家庭影院 4K家庭影院案例 | 家庭影院音频 4K家庭影院论坛

查看: 101|回复: 1

[喜剧片] 节假日 The.Festival.2018.1080p.BluRay.REMUX.AVC.DTS-HD.MA.5.1-FGT 20.92GB

[复制链接]

 成长值: 1380

级别:资源管理组

注册时间
2017-10-20
最后登录
2019-5-26
听众
0
收听
0
主题
77703
蓝光币
19884 枚
贡献
2024 点
发表于 2018-12-10 23:54:39 | 显示全部楼层 |阅读模式

节沐日 The.Festival.2018.1080p.BluRay.REMUX.AVC.DTS-HD.MA.5.1-FGT 20.92GB-1.jpg
◎译  名 节沐日 / The Festival
◎片  名 节沐日 The Festival
◎年  代 2018
◎国  家 英国
◎类  别 笑剧
◎语  言 英语
◎上映日期 2018-08-17(英国)
◎IMDb评分  6.0/10 from 1,474 users
◎IMDb链接  http://www.imdb.com/title/tt7460806/
◎豆瓣评分 今朝无人评价
◎豆瓣链接 https://movie.douban.com/subject/30255105/
◎片  长 98分钟
◎导  演 Iain Morris
◎主  演 乔·托马斯
      Hammed Animashaun
      Claudia O'Doherty
      杰梅奈·克莱门特
      汉娜·托茵东
      西奥·巴克利姆比格斯
      科特·耶格尔
      Lizzy Connolly
      Hugh Coles
      克里斯·吉尔
      尼克·弗罗斯特
      爱玛·里格比
      诺尔·费丁
      托尼·威
      艾德里安·鲁基斯
      Stirling Gallacher
      丹尼尔·厄根
      乔恩·坎普林
      Natasia Demetriou
      Kirsty J. Curtis
      保罗·布莱克维尔
      马克·普雷斯顿
      Samantha E. Hunt
      Tom Knight
      Marek Larwood
      Colin Murtagh
      Jackson Kai
      Guy Rhys
      Anthony Adjekum
      Bronté Terrell
      丹·柏曼
      斯图尔特·戴维森
      Hayley Thomas
      Steve Walsh
      Chris Pybus
      Leigh Williams
      James Wallwork
      Filiz Fairweather
      Jason Williamson
      Abbey Marise Butler
      Ade Dimberline
      Kayleigh Jade West
      Gareth Key
      Lewis Maiella
      Debbie Cameron
      Lou Safire
      Jessica Danielle Cara Davies
      Thomas Greenhaf
      Guillaume Rivaud
      Clem So

◎简  介 

  When Nick's girlfriend dumps him at graduation, he has a colossal meltdown in front of the entire university. He's convinced his life is over, but his best mate Shane has the perfect solution: three days at an epic music festival. With the help of "festival aficionado" and certified oddball Amy, Shane tries to get Nick to embrace the music, the mayhem and the mud. From the creators of the Inbetweeners comes The Festival, a movie about friendship, growing up, and going mad in a field.


  1. Video
  2. ID                                       : 1
  3. Format                                   : AVC
  4. Format/Info                              : Advanced Video Codec
  5. Format profile                           : [url=/cdn-cgi/l/email-protection][email protected][/url]
  6. Format settings                          : CABAC / 4 Ref Frames
  7. Format settings, CABAC                   : Yes
  8. Format settings, ReFrames                : 4 frames
  9. Format settings, GOP                     : M=3, N=24
  10. Codec ID                                 : V_MPEG4/ISO/AVC
  11. Duration                                 : 1 h 37 min
  12. Bit rate mode                            : Variable
  13. Bit rate                                 : 25.4 Mb/s
  14. Maximum bit rate                         : 34.0 Mb/s
  15. Width                                    : 1 920 pixels
  16. Height                                   : 1 080 pixels
  17. Display aspect ratio                     : 16:9
  18. Frame rate mode                          : Constant
  19. Frame rate                               : 23.976 (24000/1001) FPS
  20. Standard                                 : NTSC
  21. Color space                              : YUV
  22. Chroma subsampling                       : 4:2:0
  23. Bit depth                                : 8 bits
  24. Scan type                                : Progressive
  25. Bits/(Pixel*Frame)                       : 0.510
  26. Stream size                              : 17.3 GiB (83%)
  27. Title                                    : The.Festival.2018.1080p.BluRay.REMUX.AVC.DTS-HD.MA.5.1-FGT
  28. Language                                 : English
  29. Default                                  : No
  30. Forced                                   : No
  31. Color range                              : Limited
  32. Color primaries                          : BT.709
  33. Transfer characteristics                 : BT.709
  34. Matrix coefficients                      : BT.709

  35. Audio #1
  36. ID                                       : 2
  37. Format                                   : DTS XLL
  38. Format/Info                              : Digital Theater Systems
  39. Commercial name                          : DTS-HD Master Audio
  40. Codec ID                                 : A_DTS
  41. Duration                                 : 1 h 37 min
  42. Bit rate mode                            : Variable
  43. Bit rate                                 : 3 689 kb/s
  44. Channel(s)                               : 6 channels
  45. Channel layout                           : C L R Ls Rs LFE
  46. Sampling rate                            : 48.0 kHz
  47. Frame rate                               : 93.750 FPS (512 SPF)
  48. Bit depth                                : 24 bits
  49. Compression mode                         : Lossless
  50. Stream size                              : 2.52 GiB (12%)
  51. Title                                    : The.Festival.2018.1080p.BluRay.REMUX.AVC.DTS-HD.MA.5.1-FGT
  52. Language                                 : English
  53. Default                                  : Yes
  54. Forced                                   : No

  55. Audio #2
  56. ID                                       : 3
  57. Format                                   : DTS
  58. Format/Info                              : Digital Theater Systems
  59. Codec ID                                 : A_DTS
  60. Duration                                 : 1 h 37 min
  61. Bit rate mode                            : Constant
  62. Bit rate                                 : 1 509 kb/s
  63. Channel(s)                               : 6 channels
  64. Channel layout                           : C L R Ls Rs LFE
  65. Sampling rate                            : 48.0 kHz
  66. Frame rate                               : 93.750 FPS (512 SPF)
  67. Bit depth                                : 24 bits
  68. Compression mode                         : Lossy
  69. Stream size                              : 1.03 GiB (5%)
  70. Title                                    : The.Festival.2018.1080p.BluRay.REMUX.AVC.DTS-HD.MA.5.1-FGT
  71. Language                                 : English
  72. Default                                  : No
  73. Forced                                   : No

  74. Text
  75. ID                                       : 4
  76. Format                                   : PGS
  77. Muxing mode                              : zlib
  78. Codec ID                                 : S_HDMV/PGS
  79. Codec ID/Info                            : Picture based subtitle format used on BDs/HD-DVDs
  80. Duration                                 : 1 h 37 min
  81. Bit rate                                 : 54.4 kb/s
  82. Count of elements                        : 4223
  83. Stream size                              : 38.1 MiB (0%)
  84. Title                                    : English-PGS
  85. Language                                 : English
  86. Default                                  : Yes
  87. Forced                                   : No

  88. Menu
  89. 00:00:00.000                             : en:Chapter 01
  90. 00:10:09.191                             : en:Chapter 02
  91. 00:19:10.774                             : en:Chapter 03
  92. 00:30:41.506                             : en:Chapter 04
  93. 00:40:45.943                             : en:Chapter 05
  94. 00:54:47.367                             : en:Chapter 06
  95. 01:07:06.063                             : en:Chapter 07
  96. 01:17:32.606                             : en:Chapter 08
  97. 01:34:16.609                             : en:Chapter 09
复制代码

复制代码

节沐日 The.Festival.2018.1080p.BluRay.REMUX.AVC.DTS-HD.MA.5.1-FGT 20.92GB-2.png 节沐日 The.Festival.2018.1080p.BluRay.REMUX.AVC.DTS-HD.MA.5.1-FGT 20.92GB-3.png 节沐日 The.Festival.2018.1080p.BluRay.REMUX.AVC.DTS-HD.MA.5.1-FGT 20.92GB-4.png





回复

使用道具 举报

级别:荣升主角 Lv.5

注册时间
2018-5-27
最后登录
2019-5-26
听众
6
收听
0
主题
0
蓝光币
77 枚
贡献
0 点
发表于 2019-1-11 20:25:24 | 显示全部楼层
感谢分享!
回复

使用道具 举报

*滑动验证:
懒得打字嘛,点击右侧快捷回复 【右侧内容,后台自定义】
您需要登录后才可以回帖 登录 | 立即注册

本版积分规则

QQ|Archiver|手机版|小黑屋| 中国高清网  |网站地图

GMT+8, 2019-5-27 01:41 , Processed in 0.155877 second(s), 46 queries .

Powered by HDchina X3.4

Copyright 2017-2019©HDchina.All right reserved

返回顶部 联系我们