你所知道的4K资源这里全部都有 4K电影 | 4K视频 | 4K壁纸 | 4K MV 怎么播放4K视频 | 4K电视演示片

教你玩转4K私人与家庭影院存储 NAS组装 | 黑群辉 家庭/影院Nas论坛

4K家庭影院信号源与视频设备知识 4K蓝光高清播放机 - 那个品牌好? 4K投影机论坛 | 4K电视机论坛

手把手教你搭建属于自己的家庭影院 4K家庭影院案例 | 家庭影院音频 4K家庭影院论坛

查看: 120|回复: 0

[喜剧片] 银河女战士 Galaxina.1980.1080p.BluRay.REMUX.AVC.DTS.2.0-FGT 10.18GB

[复制链接]

 成长值: 1380

级别:资源管理组

注册时间
2017-10-20
最后登录
2019-5-26
听众
0
收听
0
主题
77702
蓝光币
19880 枚
贡献
2023 点
发表于 2018-12-10 17:34:07 | 显示全部楼层 |阅读模式

银河女战士 Galaxina.1980.1080p.BluRay.REMUX.AVC.DTS.2.0-FGT 10.18GB-1.jpg
◎译  名 银河女战士
◎片  名 银河女战士 Galaxina
◎年  代 1980
◎国  家 美国
◎类  别 笑剧 / 科幻 / 冒险
◎语  言 英语
◎上映日期 1980-06-06
◎IMDb评分  3.5/10 from 2,356 users
◎IMDb链接  http://www.imdb.com/title/tt0080771/
◎豆瓣评分 今朝无人评价
◎豆瓣链接 https://movie.douban.com/subject/2242131/
◎片  长 95 分钟
◎导  演 William Sachs
◎主  演 Stephen Macht
      Dorothy Stratten
      Avery Schreiber
      J.D. Hinton

◎简  介 

  The crew of the police cruiser Infinity is finally heading home after a long stay in deep space. Just when they think they are about to get some much needed rest and relaxation, the crew is given a new mission - journey to the alien world Altar One to find the Blue Star, a mystical gem that holds unlimited power. Their journey to find the Blue Star leads them to an outer space brothel full of alien women and a gang that worships Harley-Davidson motorcycles. Can Galaxina and the crew find the Blue Star and save the world and will the ship's pilot succumb to the beauty of the ship's sexy robot Galaxina.


  1. Video
  2. ID                                       : 1
  3. Format                                   : AVC
  4. Format/Info                              : Advanced Video Codec
  5. Format profile                           : [url=/cdn-cgi/l/email-protection][email protected][/url]
  6. Format settings                          : CABAC / 4 Ref Frames
  7. Format settings, CABAC                   : Yes
  8. Format settings, ReFrames                : 4 frames
  9. Codec ID                                 : V_MPEG4/ISO/AVC
  10. Duration                                 : 1 h 34 min
  11. Bit rate mode                            : Variable
  12. Bit rate                                 : 15.0 Mb/s
  13. Maximum bit rate                         : 35.0 Mb/s
  14. Width                                    : 1 920 pixels
  15. Height                                   : 1 080 pixels
  16. Display aspect ratio                     : 16:9
  17. Frame rate mode                          : Constant
  18. Frame rate                               : 23.976 (24000/1001) FPS
  19. Standard                                 : Component
  20. Color space                              : YUV
  21. Chroma subsampling                       : 4:2:0
  22. Bit depth                                : 8 bits
  23. Scan type                                : Progressive
  24. Bits/(Pixel*Frame)                       : 0.302
  25. Stream size                              : 9.92 GiB (97%)
  26. Title                                    : Galaxina.1980.1080p.BluRay.REMUX.AVC.DTS.2.0-FGT
  27. Language                                 : English
  28. Default                                  : No
  29. Forced                                   : No
  30. Color range                              : Limited
  31. Color primaries                          : BT.709
  32. Transfer characteristics                 : BT.709
  33. Matrix coefficients                      : BT.709

  34. Audio
  35. ID                                       : 2
  36. Format                                   : DTS
  37. Format/Info                              : Digital Theater Systems
  38. Codec ID                                 : A_DTS
  39. Duration                                 : 1 h 34 min
  40. Bit rate mode                            : Constant
  41. Bit rate                                 : 384 kb/s
  42. Channel(s)                               : 2 channels
  43. Channel layout                           : L R
  44. Sampling rate                            : 48.0 kHz
  45. Frame rate                               : 93.750 FPS (512 SPF)
  46. Bit depth                                : 16 bits
  47. Compression mode                         : Lossy
  48. Stream size                              : 259 MiB (2%)
  49. Title                                    : Galaxina.1980.1080p.BluRay.REMUX.AVC.DTS.2.0-FGT
  50. Language                                 : English
  51. Default                                  : Yes
  52. Forced                                   : No

  53. Menu
  54. 00:00:00.000                             : en:Chapter 01
  55. 00:06:34.560                             : en:Chapter 02
  56. 00:15:09.408                             : en:Chapter 03
  57. 00:23:57.227                             : en:Chapter 04
  58. 00:32:44.504                             : en:Chapter 05
  59. 00:39:19.899                             : en:Chapter 06
  60. 00:45:58.213                             : en:Chapter 07
  61. 00:54:53.707                             : en:Chapter 08
  62. 01:03:17.877                             : en:Chapter 09
  63. 01:12:09.074                             : en:Chapter 10
  64. 01:20:57.269                             : en:Chapter 11
  65. 01:27:35.375                             : en:Chapter 12
复制代码

复制代码

银河女战士 Galaxina.1980.1080p.BluRay.REMUX.AVC.DTS.2.0-FGT 10.18GB-2.png 银河女战士 Galaxina.1980.1080p.BluRay.REMUX.AVC.DTS.2.0-FGT 10.18GB-3.png 银河女战士 Galaxina.1980.1080p.BluRay.REMUX.AVC.DTS.2.0-FGT 10.18GB-4.png





回复

使用道具 举报

*滑动验证:
懒得打字嘛,点击右侧快捷回复 【右侧内容,后台自定义】
您需要登录后才可以回帖 登录 | 立即注册

本版积分规则

QQ|Archiver|手机版|小黑屋| 中国高清网 |网站地图

GMT+8, 2019-5-27 00:59 , Processed in 0.134684 second(s), 46 queries .

Powered by HDchina X3.4

Copyright 2017-2019©HDchina.All right reserved

返回顶部 联系我们