你所知道的4K资源这里全部都有 4K电影 | 4K视频 | 4K壁纸 | 4K MV 怎么播放4K视频 | 4K电视演示片

教你玩转4K私人与家庭影院存储 NAS组装 | 黑群辉 家庭/影院Nas论坛

4K家庭影院信号源与视频设备知识 4K蓝光高清播放机 - 那个品牌好? 4K投影机论坛 | 4K电视机论坛

手把手教你搭建属于自己的家庭影院 4K家庭影院案例 | 家庭影院音频 4K家庭影院论坛

查看: 98|回复: 1

[喜剧片] 家族之苦/麻烦家族 What.a.Wonderful.Family.2016.JAPANESE.1080p.BluRay.REMUX.AVC.TrueHD.5.1-FGT 20.62GB

[复制链接]

 成长值: 1380

级别:资源管理组

注册时间
2017-10-20
最后登录
2019-5-26
听众
0
收听
0
主题
77703
蓝光币
19886 枚
贡献
2024 点
发表于 2018-11-26 22:44:19 | 显示全部楼层 |阅读模式

家属之苦/麻烦家属 What.a.Wonderful.Family.2016.JAPANESE.1080p.BluRay.REMUX.AVC.TrueHD.5.1-FGT 20.62GB-1.jpg
◎译  名 家属之苦 / 麻烦家属(港) / 家属真命苦(台) / Kazoku wa tsuraiyo / What a Wonderful Family!
◎片  名 家属之苦 家属はつらいよ
◎年  代 2016
◎国  家 日本
◎类  别 笑剧 / 家庭
◎语  言 日语
◎上映日期 2016-03-12(日本)
◎IMDb评分  7.0/10 from 653 users
◎IMDb链接  http://www.imdb.com/title/tt4065842/
◎豆瓣评分 8.1/10 from 32211 users
◎豆瓣链接 https://movie.douban.com/subject/26020796/
◎片  长 108分钟
◎导  演 山田洋次
◎主  演 桥爪功
      吉行和子
      西村雅彦
      夏川结衣
      中岛朋子
      林家正蔵
      妻夫木聪
      苍井优
      小林稔侍
      风吹淳
      中村鹰之资
      丸山步梦
      笹野高史
      木场胜己
      徳永雄辉
      笑福亭鹤瓶
      冈本富士太
      广冈由里子
      近藤公园
      北山雅康
      团时郎

◎简  介 

  忙碌半生的平田周造(桥爪功 饰)定年退休,现在这个老头优哉游哉,平常和老友们打高尔夫球散心,玩乐事后再来到居酒屋微风味犹存的老板娘佳代(风吹纯 饰)调笑一番,生活好不舒服。这一日,当他一如平常醉醺醺回抵家中时,看似唾面自干的妻子富子(吉行和子 饰)居然提出仳离的请求,顿时令周造酒醒了泰半。越日醒来,富子仍然没有改变主张,周造的心情是以变得越来越糟。怙恃婚变,连带平田家的其他成员宗子幸之助(西村雅彦 饰)、儿媳妇史枝(夏川结衣 饰)、女儿成子(中岛朋子 饰)、半子泰藏(林家正藏 饰)、小儿子庄太(妻夫木聪 饰)及其女友宪子(苍井优 饰)也被卷入其中。
  吵吵闹闹,喜怒哀乐,东京普通的一户人家平常一瞥……

◎获奖情况 

  第41届日本电影学院奖 (2018)
  最好男配角(提名) 西村雅彦

  第40届日本电影学院奖 (2017)
  最好影片(提名)
  最好编剧(提名) 山田洋次 /  平松惠美子
  最好摄影(提名)
  最好美术指导(提名)
  最好照明(提名)
  最好录音(提名)
  最好剪辑(提名)

  第3届豆瓣电影年度榜单 (2016)
  评分最高的日本电影(提名)
  评分最高的笑剧片(提名)


  1. Video
  2. ID                                       : 1
  3. Format                                   : AVC
  4. Format/Info                              : Advanced Video Codec
  5. Format profile                           : [url=/cdn-cgi/l/email-protection][email protected][/url]
  6. Format settings                          : CABAC / 4 Ref Frames
  7. Format settings, CABAC                   : Yes
  8. Format settings, ReFrames                : 4 frames
  9. Codec ID                                 : V_MPEG4/ISO/AVC
  10. Duration                                 : 1 h 47 min
  11. Bit rate mode                            : Variable
  12. Bit rate                                 : 23.0 Mb/s
  13. Maximum bit rate                         : 30.0 Mb/s
  14. Width                                    : 1 920 pixels
  15. Height                                   : 1 080 pixels
  16. Display aspect ratio                     : 16:9
  17. Frame rate mode                          : Constant
  18. Frame rate                               : 23.976 (24000/1001) FPS
  19. Standard                                 : NTSC
  20. Color space                              : YUV
  21. Chroma subsampling                       : 4:2:0
  22. Bit depth                                : 8 bits
  23. Scan type                                : Progressive
  24. Bits/(Pixel*Frame)                       : 0.463
  25. Stream size                              : 17.3 GiB (84%)
  26. Title                                    : What.a.Wonderful.Family.2016.JAPANESE.1080p.BluRay.REMUX.AVC.TrueHD.5.1-FGT
  27. Language                                 : English
  28. Default                                  : No
  29. Forced                                   : No
  30. Color range                              : Limited
  31. Color primaries                          : BT.709
  32. Transfer characteristics                 : BT.709
  33. Matrix coefficients                      : BT.709

  34. Audio #1
  35. ID                                       : 2
  36. Format                                   : MLP FBA
  37. Format/Info                              : Meridian Lossless Packing FBA
  38. Commercial name                          : Dolby TrueHD
  39. Codec ID                                 : A_TRUEHD
  40. Duration                                 : 1 h 47 min
  41. Bit rate mode                            : Variable
  42. Bit rate                                 : 3 015 kb/s
  43. Maximum bit rate                         : 4 182 kb/s
  44. Channel(s)                               : 6 channels
  45. Channel layout                           : L R C LFE Ls Rs
  46. Sampling rate                            : 96.0 kHz
  47. Frame rate                               : 1 200.000 FPS (80 SPF)
  48. Compression mode                         : Lossless
  49. Stream size                              : 2.27 GiB (11%)
  50. Title                                    : What.a.Wonderful.Family.2016.JAPANESE.1080p.BluRay.REMUX.AVC.TrueHD.5.1-FGT
  51. Language                                 : Japanese
  52. Default                                  : Yes
  53. Forced                                   : No

  54. Audio #2
  55. ID                                       : 3
  56. Format                                   : AC-3
  57. Format/Info                              : Audio Coding 3
  58. Commercial name                          : Dolby Digital
  59. Codec ID                                 : A_AC3
  60. Duration                                 : 1 h 47 min
  61. Bit rate mode                            : Constant
  62. Bit rate                                 : 640 kb/s
  63. Channel(s)                               : 6 channels
  64. Channel layout                           : L R C LFE Ls Rs
  65. Sampling rate                            : 48.0 kHz
  66. Frame rate                               : 31.250 FPS (1536 SPF)
  67. Bit depth                                : 16 bits
  68. Compression mode                         : Lossy
  69. Stream size                              : 493 MiB (2%)
  70. Title                                    : What.a.Wonderful.Family.2016.JAPANESE.1080p.BluRay.REMUX.AVC.TrueHD.5.1-FGT
  71. Language                                 : Japanese
  72. Service kind                             : Complete Main
  73. Default                                  : No
  74. Forced                                   : No

  75. Audio #3
  76. ID                                       : 4
  77. Format                                   : AC-3
  78. Format/Info                              : Audio Coding 3
  79. Commercial name                          : Dolby Digital
  80. Codec ID                                 : A_AC3
  81. Duration                                 : 1 h 47 min
  82. Bit rate mode                            : Constant
  83. Bit rate                                 : 640 kb/s
  84. Channel(s)                               : 6 channels
  85. Channel layout                           : L R C LFE Ls Rs
  86. Sampling rate                            : 48.0 kHz
  87. Frame rate                               : 31.250 FPS (1536 SPF)
  88. Bit depth                                : 16 bits
  89. Compression mode                         : Lossy
  90. Stream size                              : 493 MiB (2%)
  91. Title                                    : What.a.Wonderful.Family.2016.JAPANESE.1080p.BluRay.REMUX.AVC.TrueHD.5.1-FGT
  92. Language                                 : Japanese
  93. Service kind                             : Complete Main
  94. Default                                  : No
  95. Forced                                   : No

  96. Text #1
  97. ID                                       : 5
  98. Format                                   : PGS
  99. Muxing mode                              : zlib
  100. Codec ID                                 : S_HDMV/PGS
  101. Codec ID/Info                            : Picture based subtitle format used on BDs/HD-DVDs
  102. Duration                                 : 1 h 47 min
  103. Bit rate                                 : 29.0 kb/s
  104. Count of elements                        : 2823
  105. Stream size                              : 22.2 MiB (0%)
  106. Title                                    : English-PGS
  107. Language                                 : English
  108. Default                                  : Yes
  109. Forced                                   : Yes

  110. Text #2
  111. ID                                       : 6
  112. Format                                   : PGS
  113. Muxing mode                              : zlib
  114. Codec ID                                 : S_HDMV/PGS
  115. Codec ID/Info                            : Picture based subtitle format used on BDs/HD-DVDs
  116. Duration                                 : 1 h 47 min
  117. Bit rate                                 : 26.8 kb/s
  118. Count of elements                        : 2815
  119. Stream size                              : 20.6 MiB (0%)
  120. Title                                    : Chinese-PGS
  121. Language                                 : Chinese
  122. Default                                  : No
  123. Forced                                   : No

  124. Menu
  125. 00:00:00.000                             : en:Chapter 01
  126. 00:08:57.620                             : en:Chapter 02
  127. 00:13:11.499                             : en:Chapter 03
  128. 00:18:36.448                             : en:Chapter 04
  129. 00:27:19.679                             : en:Chapter 05
  130. 00:34:14.093                             : en:Chapter 06
  131. 00:52:44.995                             : en:Chapter 07
  132. 01:03:39.232                             : en:Chapter 08
  133. 01:15:26.230                             : en:Chapter 09
  134. 01:22:42.332                             : en:Chapter 10
  135. 01:27:44.217                             : en:Chapter 11
  136. 01:31:21.517                             : en:Chapter 12
复制代码

复制代码

家属之苦/麻烦家属 What.a.Wonderful.Family.2016.JAPANESE.1080p.BluRay.REMUX.AVC.TrueHD.5.1-FGT 20.62GB-2.png 家属之苦/麻烦家属 What.a.Wonderful.Family.2016.JAPANESE.1080p.BluRay.REMUX.AVC.TrueHD.5.1-FGT 20.62GB-3.png 家属之苦/麻烦家属 What.a.Wonderful.Family.2016.JAPANESE.1080p.BluRay.REMUX.AVC.TrueHD.5.1-FGT 20.62GB-4.png





回复

使用道具 举报

级别:荣升主角 Lv.5

注册时间
2018-5-27
最后登录
2019-5-26
听众
6
收听
0
主题
0
蓝光币
77 枚
贡献
0 点
发表于 2018-11-30 18:51:04 | 显示全部楼层
感谢分享!
回复

使用道具 举报

*滑动验证:
懒得打字嘛,点击右侧快捷回复 【右侧内容,后台自定义】
您需要登录后才可以回帖 登录 | 立即注册

本版积分规则

QQ|Archiver|手机版|小黑屋| 中国高清网  |网站地图

GMT+8, 2019-5-27 01:58 , Processed in 0.207249 second(s), 46 queries .

Powered by HDchina X3.4

Copyright 2017-2019©HDchina.All right reserved

返回顶部 联系我们