你所知道的4K资源这里全部都有 4K电影 | 4K视频 | 4K壁纸 | 4K MV 怎么播放4K视频 | 4K电视演示片

教你玩转4K私人与家庭影院存储 NAS组装 | 黑群辉 家庭/影院Nas论坛

4K家庭影院信号源与视频设备知识 4K蓝光高清播放机 - 那个品牌好? 4K投影机论坛 | 4K电视机论坛

手把手教你搭建属于自己的家庭影院 4K家庭影院案例 | 家庭影院音频 4K家庭影院论坛

查看: 265|回复: 2

[科幻片] 蚁人2:黄蜂女现身/蚁侠2:黄蜂女现身 Ant.Man.and.the.Wasp.2018.1080p.BluRay.REMUX.AVC.DTS-HD.MA.7.1-FGT 33.51GB

[复制链接]

 成长值: 1380

级别:资源管理组

注册时间
2017-10-20
最后登录
2019-5-26
听众
0
收听
0
主题
77703
蓝光币
19880 枚
贡献
2024 点
发表于 2018-10-7 23:47:12 | 显示全部楼层 |阅读模式

蚁人2:黄蜂女现身/蚁侠2:黄蜂女现身 Ant.Man.and.the.Wasp.2018.1080p.BluRay.REMUX.AVC.DTS-HD.MA.7.1-FGT 33.51GB-1.jpg
◎译  名 蚁人2:黄蜂女现身/蚁侠2:黄蜂女现身(港)/蚁人2/蚁人与黄蜂女
◎片  名 Ant-Man and the Wasp
◎年  代 2018
◎产  地 美国
◎类  别 行动/科幻/冒险
◎语  言 英语
◎上映日期 2018-07-06(美国)/2018-08-24(中国大陆)
◎IMDb评分  7.3/10 from 107,451 users
◎IMDb链接  http://www.imdb.com/title/tt5095030/
◎豆瓣评分 7.5/10 from 160,477 users
◎豆瓣链接 https://movie.douban.com/subject/26636712/
◎片  长 118分钟/119分钟(中国大陆)
◎导  演 佩顿·里德 Peyton Reed
◎主  演 保罗·路德 Paul Rudd
      伊万杰琳·莉莉 Evangeline Lilly
      迈克尔·佩纳 Michael Pe?a
      汉娜·乔恩-卡门 Hannah John-Kamen
      沃尔顿·戈金斯 Walton Goggins
      鲍比·坎纳瓦尔 Bobby Cannavale
      朱迪·格雷尔 Judy Greer
      T.I.
      大卫·达斯马齐连 David Dastmalchian
      艾比·莱德·弗特森 Abby Ryder Fortson
      兰道尔·朴 Randall Park
      米歇尔·菲佛 Michelle Pfeiffer
      劳伦斯·菲什伯恩 Laurence Fishburne
      迈克尔·道格拉斯 Michael Douglas
      戈兰·卡斯蒂克 Goran Kostic
      罗布·阿切尔 Rob Archer
      肖恩·克莱尔 Sean Kleier
      本·戴维斯 Ben Davis
      迈克尔·瑟沃瑞斯 Michael Cerveris
      达克斯·格里芬 Dax Griffin
      海莉·洛维特 Hayley Lovitt
      玛德琳·麦格劳 Madeleine McGraw
      蒂姆·海德克 Tim Heidecker
      布莱恩·赫斯基 Brian Huskey
      朱莉娅·维拉 Julia Vera
      布莱恩·卢戈 Bryan Lugo
      托里·沃格尔 Torrey Vogel
      汤姆·夏普林 Tom Scharpling
      斯坦·李 Stan Lee
      约瑟夫·阿梅 Joseph Amey
      安迪·阿尼斯 Andy Arness
      威廉·W·巴伯 William W. Barbour
      玛塞拉·布拉吉奥 Marcella Bragio
      塞尔吉奥·布里奥内斯 Sergio Briones
      乔·布卡罗三世 Joe Bucaro III
      蒂莫西·卡尔 Timothy Carr
      贾迈尔·钱伯斯 Jamel Chambers
      扎卡里·卡伯森 Zachary Culbertson
      雅各布·埃文斯 Jacob Evans
      米歇尔·方 Michelle Fang
      盖尔·甘布尔 Gail Gamble
      克里斯·加恩 Chris Gann
      约翰·盖蒂尔 John Gettier
      杰克·汉森 Jake Hanson
      卡茜·亨德利 Cassie Hendry

◎简  介

  来自漫威电影宇宙的新片《蚁人2:黄蜂女现身》重点展现了两位超级豪杰使人赞叹的收缩才能。继《美国队长3》的故事线以后,斯科特·朗迎来了自己作为超级豪杰和孩子父亲的两重身份。一方面,他在背负着蚁人职责的同时尽力过好自己的生活;另一方面,二代黄蜂女霍普·凡·戴恩和汉克·皮姆博士又向他转达了一项紧急的新使命。斯科特必须再次穿上战衣,与黄蜂女并肩作战,配合破解来自曩昔的谜题。

◎获奖情况

  第4届豆瓣电影年度榜单  (2017)
  最值得期待的外语电影(提名)

  1. Video
  2. ID                                       : 1
  3. Format                                   : AVC
  4. Format/Info                              : Advanced Video Codec
  5. Format profile                           : [url=/cdn-cgi/l/email-protection][email protected][/url]
  6. Format settings                          : CABAC / 4 Ref Frames
  7. Format settings, CABAC                   : Yes
  8. Format settings, ReFrames                : 4 frames
  9. Format settings, GOP                     : M=3, N=12
  10. Codec ID                                 : V_MPEG4/ISO/AVC
  11. Duration                                 : 1 h 58 min
  12. Bit rate mode                            : Variable
  13. Bit rate                                 : 31.7 Mb/s
  14. Maximum bit rate                         : 34.5 Mb/s
  15. Width                                    : 1 920 pixels
  16. Height                                   : 1 080 pixels
  17. Display aspect ratio                     : 16:9
  18. Frame rate mode                          : Constant
  19. Frame rate                               : 23.976 (24000/1001) FPS
  20. Color space                              : YUV
  21. Chroma subsampling                       : 4:2:0
  22. Bit depth                                : 8 bits
  23. Scan type                                : Progressive
  24. Bits/(Pixel*Frame)                       : 0.638
  25. Stream size                              : 26.2 GiB (78%)
  26. Title                                    : Ant.Man.and.the.Wasp.2018.1080p.BluRay.REMUX.AVC.DTS-HD.MA.7.1-FGT
  27. Language                                 : English
  28. Default                                  : No
  29. Forced                                   : No

  30. Audio #1
  31. ID                                       : 2
  32. Format                                   : DTS
  33. Format/Info                              : Digital Theater Systems
  34. Format profile                           : MA / Core
  35. Codec ID                                 : A_DTS
  36. Duration                                 : 1 h 58 min
  37. Bit rate mode                            : Variable / Constant
  38. Bit rate                                 : 4 788 kb/s / 1 509 kb/s
  39. Channel(s)                               : 8 channels / 6 channels
  40. Channel positions                        : Front: L C R, Side: L R, Back: L R, LFE / Front: L C R, Side: L R, LFE
  41. Sampling rate                            : 48.0 kHz
  42. Frame rate                               : 93.750 FPS (512 SPF)
  43. Bit depth                                : 24 bits
  44. Compression mode                         : Lossless / Lossy
  45. Stream size                              : 3.95 GiB (12%)
  46. Title                                    : Ant.Man.and.the.Wasp.2018.1080p.BluRay.REMUX.AVC.DTS-HD.MA.7.1-FGT
  47. Language                                 : English
  48. Default                                  : Yes
  49. Forced                                   : No

  50. Audio #2
  51. ID                                       : 3
  52. Format                                   : DTS
  53. Format/Info                              : Digital Theater Systems
  54. Codec ID                                 : A_DTS
  55. Duration                                 : 1 h 58 min
  56. Bit rate mode                            : Constant
  57. Bit rate                                 : 1 509 kb/s
  58. Channel(s)                               : 6 channels
  59. Channel positions                        : Front: L C R, Side: L R, LFE
  60. Sampling rate                            : 48.0 kHz
  61. Frame rate                               : 93.750 FPS (512 SPF)
  62. Bit depth                                : 24 bits
  63. Compression mode                         : Lossy
  64. Stream size                              : 1.24 GiB (4%)
  65. Title                                    : Ant.Man.and.the.Wasp.2018.1080p.BluRay.REMUX.AVC.DTS-HD.MA.7.1-FGT
  66. Language                                 : English
  67. Default                                  : No
  68. Forced                                   : No

  69. Audio #3
  70. ID                                       : 4
  71. Format                                   : AC-3
  72. Format/Info                              : Audio Coding 3
  73. Codec ID                                 : A_AC3
  74. Duration                                 : 1 h 58 min
  75. Bit rate mode                            : Constant
  76. Bit rate                                 : 320 kb/s
  77. Channel(s)                               : 2 channels
  78. Channel positions                        : Front: L R
  79. Sampling rate                            : 48.0 kHz
  80. Frame rate                               : 31.250 FPS (1536 SPF)
  81. Bit depth                                : 16 bits
  82. Compression mode                         : Lossy
  83. Stream size                              : 270 MiB (1%)
  84. Title                                    : Ant.Man.and.the.Wasp.2018.1080p.BluRay.REMUX.AVC.DTS-HD.MA.7.1-FGT
  85. Language                                 : English
  86. Service kind                             : Complete Main
  87. Default                                  : No
  88. Forced                                   : No

  89. Audio #4
  90. ID                                       : 5
  91. Format                                   : AC-3
  92. Format/Info                              : Audio Coding 3
  93. Codec ID                                 : A_AC3
  94. Duration                                 : 1 h 58 min
  95. Bit rate mode                            : Constant
  96. Bit rate                                 : 640 kb/s
  97. Channel(s)                               : 6 channels
  98. Channel positions                        : Front: L C R, Side: L R, LFE
  99. Sampling rate                            : 48.0 kHz
  100. Frame rate                               : 31.250 FPS (1536 SPF)
  101. Bit depth                                : 16 bits
  102. Compression mode                         : Lossy
  103. Stream size                              : 541 MiB (2%)
  104. Title                                    : Ant.Man.and.the.Wasp.2018.1080p.BluRay.REMUX.AVC.DTS-HD.MA.7.1-FGT
  105. Language                                 : French
  106. Service kind                             : Complete Main
  107. Default                                  : No
  108. Forced                                   : No

  109. Audio #5
  110. ID                                       : 6
  111. Format                                   : AC-3
  112. Format/Info                              : Audio Coding 3
  113. Codec ID                                 : A_AC3
  114. Duration                                 : 1 h 58 min
  115. Bit rate mode                            : Constant
  116. Bit rate                                 : 640 kb/s
  117. Channel(s)                               : 6 channels
  118. Channel positions                        : Front: L C R, Side: L R, LFE
  119. Sampling rate                            : 48.0 kHz
  120. Frame rate                               : 31.250 FPS (1536 SPF)
  121. Bit depth                                : 16 bits
  122. Compression mode                         : Lossy
  123. Stream size                              : 541 MiB (2%)
  124. Title                                    : Ant.Man.and.the.Wasp.2018.1080p.BluRay.REMUX.AVC.DTS-HD.MA.7.1-FGT
  125. Language                                 : Spanish
  126. Service kind                             : Complete Main
  127. Default                                  : No
  128. Forced                                   : No

  129. Audio #6
  130. ID                                       : 7
  131. Format                                   : AC-3
  132. Format/Info                              : Audio Coding 3
  133. Codec ID                                 : A_AC3
  134. Duration                                 : 1 h 58 min
  135. Bit rate mode                            : Constant
  136. Bit rate                                 : 640 kb/s
  137. Channel(s)                               : 6 channels
  138. Channel positions                        : Front: L C R, Side: L R, LFE
  139. Sampling rate                            : 48.0 kHz
  140. Frame rate                               : 31.250 FPS (1536 SPF)
  141. Bit depth                                : 16 bits
  142. Compression mode                         : Lossy
  143. Stream size                              : 541 MiB (2%)
  144. Title                                    : Ant.Man.and.the.Wasp.2018.1080p.BluRay.REMUX.AVC.DTS-HD.MA.7.1-FGT
  145. Language                                 : Portuguese
  146. Service kind                             : Complete Main
  147. Default                                  : No
  148. Forced                                   : No

  149. Audio #7
  150. ID                                       : 8
  151. Format                                   : AC-3
  152. Format/Info                              : Audio Coding 3
  153. Codec ID                                 : A_AC3
  154. Duration                                 : 1 h 58 min
  155. Bit rate mode                            : Constant
  156. Bit rate                                 : 192 kb/s
  157. Channel(s)                               : 2 channels
  158. Channel positions                        : Front: L R
  159. Sampling rate                            : 48.0 kHz
  160. Frame rate                               : 31.250 FPS (1536 SPF)
  161. Bit depth                                : 16 bits
  162. Compression mode                         : Lossy
  163. Stream size                              : 162 MiB (0%)
  164. Title                                    : Ant.Man.and.the.Wasp.2018.1080p.BluRay.REMUX.AVC.DTS-HD.MA.7.1-FGT
  165. Language                                 : English
  166. Service kind                             : Complete Main
  167. Default                                  : No
  168. Forced                                   : No

  169. Text #1
  170. ID                                       : 9
  171. Format                                   : PGS
  172. Muxing mode                              : zlib
  173. Codec ID                                 : S_HDMV/PGS
  174. Codec ID/Info                            : Picture based subtitle format used on BDs/HD-DVDs
  175. Duration                                 : 1 h 57 min
  176. Bit rate                                 : 44.7 kb/s
  177. Count of elements                        : 4274
  178. Stream size                              : 37.6 MiB (0%)
  179. Title                                    : English-PGS
  180. Language                                 : English
  181. Default                                  : Yes
  182. Forced                                   : No

  183. Text #2
  184. ID                                       : 10
  185. Format                                   : PGS
  186. Muxing mode                              : zlib
  187. Codec ID                                 : S_HDMV/PGS
  188. Codec ID/Info                            : Picture based subtitle format used on BDs/HD-DVDs
  189. Duration                                 : 1 h 57 min
  190. Bit rate                                 : 31.1 kb/s
  191. Count of elements                        : 3580
  192. Stream size                              : 26.2 MiB (0%)
  193. Title                                    : French-PGS
  194. Language                                 : French
  195. Default                                  : No
  196. Forced                                   : No

  197. Text #3
  198. ID                                       : 11
  199. Format                                   : PGS
  200. Muxing mode                              : zlib
  201. Codec ID                                 : S_HDMV/PGS
  202. Codec ID/Info                            : Picture based subtitle format used on BDs/HD-DVDs
  203. Duration                                 : 1 h 57 min
  204. Bit rate                                 : 36.0 kb/s
  205. Count of elements                        : 3588
  206. Stream size                              : 30.3 MiB (0%)
  207. Title                                    : Spanish-PGS
  208. Language                                 : Spanish
  209. Default                                  : No
  210. Forced                                   : No

  211. Text #4
  212. ID                                       : 12
  213. Format                                   : PGS
  214. Muxing mode                              : zlib
  215. Codec ID                                 : S_HDMV/PGS
  216. Codec ID/Info                            : Picture based subtitle format used on BDs/HD-DVDs
  217. Duration                                 : 1 h 57 min
  218. Bit rate                                 : 36.0 kb/s
  219. Count of elements                        : 3534
  220. Stream size                              : 30.3 MiB (0%)
  221. Title                                    : Portuguese-PGS
  222. Language                                 : Portuguese
  223. Default                                  : No
  224. Forced                                   : No

  225. Text #5
  226. ID                                       : 13
  227. Format                                   : PGS
  228. Muxing mode                              : zlib
  229. Codec ID                                 : S_HDMV/PGS
  230. Codec ID/Info                            : Picture based subtitle format used on BDs/HD-DVDs
  231. Duration                                 : 1 h 57 min
  232. Bit rate                                 : 87.3 kb/s
  233. Count of elements                        : 4804
  234. Stream size                              : 73.7 MiB (0%)
  235. Title                                    : English-COMMENTARY-PGS
  236. Language                                 : English
  237. Default                                  : No
  238. Forced                                   : No

  239. Text #6
  240. ID                                       : 14
  241. Format                                   : PGS
  242. Muxing mode                              : zlib
  243. Codec ID                                 : S_HDMV/PGS
  244. Codec ID/Info                            : Picture based subtitle format used on BDs/HD-DVDs
  245. Duration                                 : 1 h 57 min
  246. Bit rate                                 : 74.4 kb/s
  247. Count of elements                        : 4776
  248. Stream size                              : 62.8 MiB (0%)
  249. Title                                    : French-COMMENTARY-PGS
  250. Language                                 : French
  251. Default                                  : No
  252. Forced                                   : No

  253. Text #7
  254. ID                                       : 15
  255. Format                                   : PGS
  256. Muxing mode                              : zlib
  257. Codec ID                                 : S_HDMV/PGS
  258. Codec ID/Info                            : Picture based subtitle format used on BDs/HD-DVDs
  259. Duration                                 : 1 h 57 min
  260. Bit rate                                 : 83.5 kb/s
  261. Count of elements                        : 4776
  262. Stream size                              : 70.4 MiB (0%)
  263. Title                                    : Spanish-COMMENTARY-PGS
  264. Language                                 : Spanish
  265. Default                                  : No
  266. Forced                                   : No

  267. Text #8
  268. ID                                       : 16
  269. Format                                   : PGS
  270. Muxing mode                              : zlib
  271. Codec ID                                 : S_HDMV/PGS
  272. Codec ID/Info                            : Picture based subtitle format used on BDs/HD-DVDs
  273. Duration                                 : 1 h 57 min
  274. Bit rate                                 : 78.7 kb/s
  275. Count of elements                        : 4776
  276. Stream size                              : 66.4 MiB (0%)
  277. Title                                    : Portuguese-COMMENTARY-PGS
  278. Language                                 : Portuguese
  279. Default                                  : No
  280. Forced                                   : No

  281. Text #9
  282. ID                                       : 17
  283. Format                                   : PGS
  284. Muxing mode                              : zlib
  285. Codec ID                                 : S_HDMV/PGS
  286. Codec ID/Info                            : Picture based subtitle format used on BDs/HD-DVDs
  287. Duration                                 : 1 h 53 min
  288. Bit rate                                 : 367 b/s
  289. Count of elements                        : 52
  290. Stream size                              : 306 KiB (0%)
  291. Title                                    : French-FORCED-PGS
  292. Language                                 : French
  293. Default                                  : No
  294. Forced                                   : No

  295. Text #10
  296. ID                                       : 18
  297. Format                                   : PGS
  298. Muxing mode                              : zlib
  299. Codec ID                                 : S_HDMV/PGS
  300. Codec ID/Info                            : Picture based subtitle format used on BDs/HD-DVDs
  301. Duration                                 : 1 h 54 min
  302. Bit rate                                 : 198 b/s
  303. Count of elements                        : 16
  304. Stream size                              : 167 KiB (0%)
  305. Title                                    : Spanish-FORCED-PGS
  306. Language                                 : Spanish
  307. Default                                  : No
  308. Forced                                   : No

  309. Text #11
  310. ID                                       : 19
  311. Format                                   : PGS
  312. Muxing mode                              : zlib
  313. Codec ID                                 : S_HDMV/PGS
  314. Codec ID/Info                            : Picture based subtitle format used on BDs/HD-DVDs
  315. Duration                                 : 1 h 54 min
  316. Bit rate                                 : 227 b/s
  317. Count of elements                        : 18
  318. Stream size                              : 191 KiB (0%)
  319. Title                                    : Portuguese-FORCED-PGS
  320. Language                                 : Portuguese
  321. Default                                  : No
  322. Forced                                   : No

  323. Menu
  324. 00:00:00.000                             : en:Chapter 01
  325. 00:04:03.034                             : en:Chapter 02
  326. 00:10:16.407                             : en:Chapter 03
  327. 00:13:39.860                             : en:Chapter 04
  328. 00:21:25.450                             : en:Chapter 05
  329. 00:29:07.829                             : en:Chapter 06
  330. 00:36:09.083                             : en:Chapter 07
  331. 00:40:56.579                             : en:Chapter 08
  332. 00:50:17.431                             : en:Chapter 09
  333. 00:58:59.077                             : en:Chapter 10
  334. 01:04:56.434                             : en:Chapter 11
  335. 01:12:54.286                             : en:Chapter 12
  336. 01:18:32.124                             : en:Chapter 13
  337. 01:24:44.913                             : en:Chapter 14
  338. 01:29:47.340                             : en:Chapter 15
  339. 01:36:16.270                             : en:Chapter 16
  340. 01:43:35.334                             : en:Chapter 17
  341. 01:46:59.830                             : en:Chapter 18
复制代码

复制代码

蚁人2:黄蜂女现身/蚁侠2:黄蜂女现身 Ant.Man.and.the.Wasp.2018.1080p.BluRay.REMUX.AVC.DTS-HD.MA.7.1-FGT 33.51GB-2.png 蚁人2:黄蜂女现身/蚁侠2:黄蜂女现身 Ant.Man.and.the.Wasp.2018.1080p.BluRay.REMUX.AVC.DTS-HD.MA.7.1-FGT 33.51GB-3.png 蚁人2:黄蜂女现身/蚁侠2:黄蜂女现身 Ant.Man.and.the.Wasp.2018.1080p.BluRay.REMUX.AVC.DTS-HD.MA.7.1-FGT 33.51GB-4.png




本帖隐藏的下载地址需要VIP会员才可阅读,您需要升级才可阅读,点击这里升级VIP

回复

使用道具 举报

级别:荣升主角 Lv.5

注册时间
2018-5-27
最后登录
2019-5-26
听众
6
收听
0
主题
0
蓝光币
77 枚
贡献
0 点
发表于 2018-10-12 19:05:07 | 显示全部楼层
感谢分享!
回复

使用道具 举报

级别:群众演员 Lv.3

注册时间
2018-3-2
最后登录
2019-5-21
听众
6
收听
0
主题
0
蓝光币
351 枚
贡献
0 点
发表于 2018-10-13 09:51:32 | 显示全部楼层
感谢分享!
回复

使用道具 举报

*滑动验证:
懒得打字嘛,点击右侧快捷回复 【右侧内容,后台自定义】
您需要登录后才可以回帖 登录 | 立即注册

本版积分规则

QQ|Archiver|手机版|小黑屋| 中国高清网  |网站地图

GMT+8, 2019-5-27 01:12 , Processed in 0.239184 second(s), 46 queries .

Powered by HDchina X3.4

Copyright 2017-2019©HDchina.All right reserved

返回顶部 联系我们