你所知道的4K资源这里全部都有 4K电影 | 4K视频 | 4K壁纸 | 4K MV 怎么播放4K视频 | 4K电视演示片

教你玩转4K私人与家庭影院存储 NAS组装 | 黑群辉 家庭/影院Nas论坛

4K家庭影院信号源与视频设备知识 4K蓝光高清播放机 - 那个品牌好? 4K投影机论坛 | 4K电视机论坛

手把手教你搭建属于自己的家庭影院 4K家庭影院案例 | 家庭影院音频 4K家庭影院论坛

查看: 112|回复: 6

边境杀手2:边境战士/怒火边界2:毒刑者 Sicario.Day.of.the.Soldado.2018.2160p.UHD.BluRay.X265.10bit.HDR.TrueHD.7.1.Atmos-TERMiNAL 17.97GB

[复制链接]

级别:资源管理组

UID
1
注册时间
2017-10-20
最后登录
2018-10-22
听众
0
收听
0
主题
71065
蓝光币
91714 枚
贡献
139966 点
发表于 2018-9-29 00:12:21 | 显示全部楼层 |阅读模式

边境杀手2:边境战士/怒火鸿沟2:毒刑者 Sicario.Day.of.the.Soldado.2018.2160p.UHD.BluRay.X265.10bit.HDR.TrueHD.7.1.Atmos-TERMiNAL 17.97GB-1.jpg
◎译  名 边境杀手2:边境战士/怒火鸿沟2:毒刑者(台)/毒裁者2(港)/边境杀手2:战士/边境杀手2:佳兵不祥/边境杀手2:并肩作战
◎片  名 Sicario: Day of the Soldado
◎年  代 2018
◎产  地 美国/意大利
◎类  别 剧情/行动/犯罪
◎语  言 英语/西班牙语
◎上映日期 2018-06-29(美国)
◎IMDb评分  7.2/10 from 43,907 users
◎IMDb链接  http://www.imdb.com/title/tt5052474/
◎豆瓣评分 6.6/10 from 8,875 users
◎豆瓣链接 https://movie.douban.com/subject/26627736/
◎片  长 122分钟
◎导  演 斯蒂法诺·索利马 Stefano Sollima
◎主  演 本尼西奥·德尔·托罗 Benicio Del Toro
      乔什·布洛林 Josh Brolin
      伊莎贝拉·莫奈 Isabela Moner
      凯瑟琳·基纳 Catherine Keener
      杰弗里·多诺万 Jeffrey Donovan
      马修·莫迪恩 Matthew Modine
      吉姆·戴佛提 Jim Devoti
      伊恩·鲍汉 Ian Bohen
      曼努埃尔·加西亚-鲁尔福 Manuel Garcia-Rulfo
      杰克·皮克金 Jake Picking
      布鲁诺·庇屈 Bruno Bichir
      杰克莫·巴泽尔 Jackamoe Buzzell
      以利亚·罗德里格斯 Elijah Rodriguez

◎简  介

  戛纳金棕榈提名影片《边境杀手》续作,本作将聚焦于本尼西奥·德尔·托罗饰演的亚历桑德罗的宿世今生,他的家人当初若何被毒贩熬煎,他又是若何酿故意狠手辣的奸细。当接到护送仇人女儿返回墨西哥的使命时,这位杀手奸细将作出怎样的挑选呢......
  • Video
  • ID                                       : 1
  • Format                                   : HEVC
  • Format/Info                              : High Efficiency Video Coding
  • Commercial name                          : HDR10
  • Format profile                           : Main [email protected]@High
  • Codec ID                                 : V_MPEGH/ISO/HEVC
  • Duration                                 : 2 h 2 min
  • Bit rate                                 : 17.0 Mb/s
  • Width                                    : 3 840 pixels
  • Height                                   : 1 600 pixels
  • Display aspect ratio                     : 2.40:1
  • Frame rate mode                          : Constant
  • Frame rate                               : 23.976 (24000/1001) FPS
  • Color space                              : YUV
  • Chroma subsampling                       : 4:2:0 (Type 2)
  • Bit depth                                : 10 bits
  • Bits/(Pixel*Frame)                       : 0.115
  • Stream size                              : 14.5 GiB (82%)
  • Writing library                          : x265 2.8+66-88ee12651e30:[Windows][GCC 6.3.0][64 bit] 10bit
  • Encoding settings                        : cpuid=1111039 / frame-threads=4 / numa-pools=20 / wpp / no-pmode / no-pme / no-psnr / no-ssim / log-level=2 / input-csp=1 / input-res=3840x1600 / interlace=0 / total-frames=176088 / level-idc=51 / high-tier=1 / uhd-bd=0 / ref=4 / no-allow-non-conformance / repeat-headers / annexb / aud / hrd / info / hash=0 / no-temporal-layers / no-open-gop / min-keyint=1 / keyint=24 / gop-lookahead=0 / bframes=4 / b-adapt=2 / b-pyramid / bframe-bias=0 / rc-lookahead=25 / lookahead-slices=4 / scenecut=40 / radl=0 / no-intra-refresh / ctu=64 / min-cu-size=8 / rect / no-amp / max-tu-size=32 / tu-inter-depth=1 / tu-intra-depth=1 / limit-tu=0 / rdoq-level=2 / dynamic-rd=0.00 / no-ssim-rd / signhide / no-tskip / nr-intra=0 / nr-inter=0 / no-constrained-intra / no-strong-intra-smoothing / max-merge=3 / limit-refs=3 / limit-modes / me=3 / subme=3 / merange=57 / temporal-mvp / weightp / no-weightb / no-analyze-src-pics / deblock=-3:-3 / no-sao / no-sao-non-deblock / rd=4 / no-early-skip / rskip / no-fast-intra / no-tskip-fast / no-cu-lossless / no-b-intra / no-splitrd-skip / rdpenalty=0 / psy-rd=2.00 / psy-rdoq=1.00 / no-rd-refine / no-lossless / cbqpoffs=0 / crqpoffs=0 / rc=crf / crf=17.0 / qcomp=0.60 / qpstep=4 / stats-write=0 / stats-read=0 / vbv-maxrate=160000 / vbv-bufsize=160000 / vbv-init=0.9 / crf-max=0.0 / crf-min=0.0 / ipratio=1.40 / pbratio=1.30 / aq-mode=1 / aq-strength=1.00 / cutree / zone-count=0 / no-strict-cbr / qg-size=32 / no-rc-grain / qpmax=69 / qpmin=0 / no-const-vbv / sar=1 / overscan=0 / videoformat=5 / range=0 / colorprim=9 / transfer=16 / colormatrix=9 / chromaloc=1 / chromaloc-top=2 / chromaloc-bottom=2 / display-window=0 / master-display=G(13250,34500)B(7500,3000)R(34000,16000)WP(15635,16450)L(10000000,1) / max-cll=8325,775 / min-luma=0 / max-luma=1023 / log2-max-poc-lsb=8 / vui-timing-info / vui-hrd-info / slices=1 / no-opt-qp-pps / no-opt-ref-list-length-pps / no-multi-pass-opt-rps / scenecut-bias=0.05 / no-opt-cu-delta-qp / no-aq-motion / hdr / hdr-opt / no-dhdr10-opt / no-idr-recovery-sei / analysis-reuse-level=5 / scale-factor=0 / refine-intra=0 / refine-inter=0 / refine-mv=0 / no-limit-sao / ctu-info=0 / no-lowpass-dct / refine-mv-type=0 / copy-pic=1 / max-ausize-factor=1.0 / no-dynamic-refine / no-single-sei
  • Default                                  : Yes
  • Forced                                   : No
  • Color range                              : Limited
  • Color primaries                          : BT.2020
  • Transfer characteristics                 : PQ
  • Matrix coefficients                      : BT.2020 non-constant
  • Mastering display color primaries        : Display P3
  • Mastering display luminance              : min: 0.0001 cd/m2, max: 1000 cd/m2
  • Maximum Content Light Level              : 8325 cd/m2
  • Maximum Frame-Average Light Level        : 775 cd/m2
  • Audio #1
  • ID                                       : 2
  • Format                                   : TrueHD
  • Format profile                           : TrueHD+Atmos / TrueHD
  • Codec ID                                 : A_TRUEHD
  • Duration                                 : 2 h 2 min
  • Bit rate mode                            : Variable
  • Bit rate                                 : 2 990 kb/s
  • Maximum bit rate                         : 5 031 kb/s
  • Channel(s)                               : Object Based / 8 channels
  • Channel positions                        : Object Based / Front: L C R, Side: L R, Back: L R, LFE
  • Sampling rate                            :  / 48.0 kHz
  • Frame rate                               : 1 200.000 FPS (40 SPF)
  • Compression mode                         : Lossless
  • Stream size                              : 2.56 GiB (14%)
  • Language                                 : English
  • Default                                  : Yes
  • Forced                                   : No
  • Audio #2
  • ID                                       : 3
  • Format                                   : AC-3
  • Format/Info                              : Audio Coding 3
  • Codec ID                                 : A_AC3
  • Duration                                 : 2 h 2 min
  • Bit rate mode                            : Constant
  • Bit rate                                 : 640 kb/s
  • Channel(s)                               : 6 channels
  • Channel positions                        : Front: L C R, Side: L R, LFE
  • Sampling rate                            : 48.0 kHz
  • Frame rate                               : 31.250 FPS (1536 SPF)
  • Bit depth                                : 16 bits
  • Compression mode                         : Lossy
  • Stream size                              : 560 MiB (3%)
  • Language                                 : English
  • Service kind                             : Complete Main
  • Default                                  : No
  • Forced                                   : No
  • Text #1
  • ID                                       : 4
  • Format                                   : UTF-8
  • Codec ID                                 : S_TEXT/UTF8
  • Codec ID/Info                            : UTF-8 Plain Text
  • Duration                                 : 1 h 27 min
  • Bit rate                                 : 6 b/s
  • Count of elements                        : 172
  • Stream size                              : 4.44 KiB (0%)
  • Title                                    : English Forced
  • Language                                 : English
  • Default                                  : Yes
  • Forced                                   : Yes
  • Text #2
  • ID                                       : 5
  • Format                                   : PGS
  • Muxing mode                              : zlib
  • Codec ID                                 : S_HDMV/PGS
  • Codec ID/Info                            : Picture based subtitle format used on BDs/HD-DVDs
  • Duration                                 : 2 h 1 min
  • Bit rate                                 : 24.1 kb/s
  • Count of elements                        : 2098
  • Stream size                              : 20.9 MiB (0%)
  • Title                                    : English SDH
  • Language                                 : English
  • Default                                  : No
  • Forced                                   : No
  • Text #3
  • ID                                       : 6
  • Format                                   : PGS
  • Muxing mode                              : zlib
  • Codec ID                                 : S_HDMV/PGS
  • Codec ID/Info                            : Picture based subtitle format used on BDs/HD-DVDs
  • Duration                                 : 1 h 52 min
  • Bit rate                                 : 20.3 kb/s
  • Count of elements                        : 1624
  • Stream size                              : 16.4 MiB (0%)
  • Language                                 : English
  • Default                                  : No
  • Forced                                   : No
  • Text #4
  • ID                                       : 7
  • Format                                   : PGS
  • Muxing mode                              : zlib
  • Codec ID                                 : S_HDMV/PGS
  • Codec ID/Info                            : Picture based subtitle format used on BDs/HD-DVDs
  • Duration                                 : 2 h 1 min
  • Bit rate                                 : 24.1 kb/s
  • Count of elements                        : 2098
  • Stream size                              : 20.9 MiB (0%)
  • Title                                    : English SDH
  • Language                                 : English
  • Default                                  : No
  • Forced                                   : No
  • Text #5
  • ID                                       : 8
  • Format                                   : PGS
  • Muxing mode                              : zlib
  • Codec ID                                 : S_HDMV/PGS
  • Codec ID/Info                            : Picture based subtitle format used on BDs/HD-DVDs
  • Duration                                 : 1 h 52 min
  • Bit rate                                 : 20.3 kb/s
  • Count of elements                        : 1624
  • Stream size                              : 16.4 MiB (0%)
  • Language                                 : English
  • Default                                  : No
  • Forced                                   : No
  • Text #6
  • ID                                       : 9
  • Format                                   : PGS
  • Muxing mode                              : zlib
  • Codec ID                                 : S_HDMV/PGS
  • Codec ID/Info                            : Picture based subtitle format used on BDs/HD-DVDs
  • Duration                                 : 2 h 1 min
  • Bit rate                                 : 16.9 kb/s
  • Count of elements                        : 1588
  • Stream size                              : 14.7 MiB (0%)
  • Language                                 : French
  • Default                                  : No
  • Forced                                   : No
  • Text #7
  • ID                                       : 10
  • Format                                   : PGS
  • Muxing mode                              : zlib
  • Codec ID                                 : S_HDMV/PGS
  • Codec ID/Info                            : Picture based subtitle format used on BDs/HD-DVDs
  • Duration                                 : 2 h 1 min
  • Bit rate                                 : 17.6 kb/s
  • Count of elements                        : 1648
  • Stream size                              : 15.3 MiB (0%)
  • Language                                 : Portuguese
  • Default                                  : No
  • Forced                                   : No
  • Text #8
  • ID                                       : 11
  • Format                                   : PGS
  • Muxing mode                              : zlib
  • Codec ID                                 : S_HDMV/PGS
  • Codec ID/Info                            : Picture based subtitle format used on BDs/HD-DVDs
  • Duration                                 : 2 h 1 min
  • Bit rate                                 : 12.8 kb/s
  • Count of elements                        : 1336
  • Stream size                              : 11.1 MiB (0%)
  • Language                                 : Spanish
  • Default                                  : No
  • Forced                                   : No
  • Text #9
  • ID                                       : 12
  • Format                                   : PGS
  • Muxing mode                              : zlib
  • Codec ID                                 : S_HDMV/PGS
  • Codec ID/Info                            : Picture based subtitle format used on BDs/HD-DVDs
  • Duration                                 : 2 h 1 min
  • Bit rate                                 : 13.9 kb/s
  • Count of elements                        : 1334
  • Stream size                              : 12.1 MiB (0%)
  • Language                                 : Spanish
  • Default                                  : No
  • Forced                                   : No

复制代码

边境杀手2:边境战士/怒火鸿沟2:毒刑者 Sicario.Day.of.the.Soldado.2018.2160p.UHD.BluRay.X265.10bit.HDR.TrueHD.7.1.Atmos-TERMiNAL 17.97GB-2.png 边境杀手2:边境战士/怒火鸿沟2:毒刑者 Sicario.Day.of.the.Soldado.2018.2160p.UHD.BluRay.X265.10bit.HDR.TrueHD.7.1.Atmos-TERMiNAL 17.97GB-3.png 边境杀手2:边境战士/怒火鸿沟2:毒刑者 Sicario.Day.of.the.Soldado.2018.2160p.UHD.BluRay.X265.10bit.HDR.TrueHD.7.1.Atmos-TERMiNAL 17.97GB-4.png






Sicario.Day.of.the.Soldado.2018.2160p.UHD.BluRay.X265.10bit.HDR.TrueHD.7.1.Atmos.torrent (90.61 KB, 下载次数: 9, 售价: 2 枚蓝光币)
回复

使用道具 举报

级别:普通观众 Lv.2

UID
7138
注册时间
2018-9-19
最后登录
2018-10-16
听众
0
收听
0
主题
0
蓝光币
0 枚
贡献
0 点
发表于 2018-9-29 10:31:42 | 显示全部楼层
O(∩_∩)O谢谢!O(∩_∩)O谢谢!O(∩_∩)O谢谢!O(∩_∩)O谢谢!
回复

使用道具 举报

级别:群众演员 Lv.3

UID
7230
注册时间
2018-9-21
最后登录
2018-10-22
听众
0
收听
0
主题
0
蓝光币
118 枚
贡献
0 点
QQ
发表于 2018-9-29 16:12:30 | 显示全部楼层
谢谢楼主的分享~~
回复

使用道具 举报

级别:群众演员 Lv.3

UID
6628
注册时间
2018-9-3
最后登录
2018-10-22
听众
0
收听
0
主题
4
蓝光币
204 枚
贡献
8 点
发表于 2018-9-30 01:30:41 | 显示全部楼层
谢谢楼主分享
回复

使用道具 举报

级别:初级观众 Lv.1

UID
7844
注册时间
2018-10-4
最后登录
2018-10-4
听众
0
收听
0
主题
0
蓝光币
2 枚
贡献
0 点
发表于 2018-10-4 13:18:23 | 显示全部楼层

谢谢楼主分享∩_∩不错的贴子
回复

使用道具 举报

级别:初级观众 Lv.1

UID
8248
注册时间
2018-10-11
最后登录
2018-10-11
听众
0
收听
0
主题
0
蓝光币
1 枚
贡献
0 点
发表于 2018-10-11 23:32:38 | 显示全部楼层
谢谢楼主分享
回复

使用道具 举报

级别:初级观众 Lv.1

UID
8248
注册时间
2018-10-11
最后登录
2018-10-11
听众
0
收听
0
主题
0
蓝光币
1 枚
贡献
0 点
发表于 2018-10-11 23:33:18 | 显示全部楼层
谢谢楼主分享 让我再得一个币
回复

使用道具 举报

您需要登录后才可以回帖 登录 | 立即注册

本版积分规则

QQ|Archiver|手机版|小黑屋|HDchina论坛 |网站地图

GMT+8, 2018-10-23 02:59 , Processed in 0.232629 second(s), 43 queries .

Powered by Discuz! X3.4

© 2001-2017 Comsenz Inc.

返回顶部 联系我们