你所知道的4K资源这里全部都有 4K电影 | 4K视频 | 4K壁纸 | 4K MV 怎么播放4K视频 | 4K电视演示片

教你玩转4K私人与家庭影院存储 NAS组装 | 黑群辉 家庭/影院Nas论坛

4K家庭影院信号源与视频设备知识 4K蓝光高清播放机 - 那个品牌好? 4K投影机论坛 | 4K电视机论坛

手把手教你搭建属于自己的家庭影院 4K家庭影院案例 | 家庭影院音频 4K家庭影院论坛

查看: 269|回复: 8

[10bit.HDR] 边境杀手2:边境战士/怒火边界2:毒刑者 Sicario.Day.of.the.Soldado.2018.2160p.UHD.BluRay.X265.10bit.HDR.TrueHD.7.1.Atmos-TERMiNAL 17.97GB

[复制链接]

 成长值: 420

级别:资源管理组

注册时间
2017-10-20
最后登录
2019-2-21
听众
0
收听
0
主题
74871
蓝光币
125844 枚
贡献
144680 点
发表于 2018-9-29 00:12:21 | 显示全部楼层 |阅读模式
边境杀手2:边境战士/怒火鸿沟2:毒刑者 Sicario.Day.of.the.Soldado.2018.2160p.UHD.BluRay.X265.10bit.HDR.TrueHD.7.1.Atmos-TERMiNAL 17.97GB-1.jpg
◎译  名 边境杀手2:边境战士/怒火鸿沟2:毒刑者(台)/毒裁者2(港)/边境杀手2:战士/边境杀手2:佳兵不祥/边境杀手2:并肩作战
◎片  名 Sicario: Day of the Soldado
◎年  代 2018
◎产  地 美国/意大利
◎类  别 剧情/行动/犯罪
◎语  言 英语/西班牙语
◎上映日期 2018-06-29(美国)
◎IMDb评分  7.2/10 from 43,907 users
◎IMDb链接  http://www.imdb.com/title/tt5052474/
◎豆瓣评分 6.6/10 from 8,875 users
◎豆瓣链接 https://movie.douban.com/subject/26627736/
◎片  长 122分钟
◎导  演 斯蒂法诺·索利马 Stefano Sollima
◎主  演 本尼西奥·德尔·托罗 Benicio Del Toro
      乔什·布洛林 Josh Brolin
      伊莎贝拉·莫奈 Isabela Moner
      凯瑟琳·基纳 Catherine Keener
      杰弗里·多诺万 Jeffrey Donovan
      马修·莫迪恩 Matthew Modine
      吉姆·戴佛提 Jim Devoti
      伊恩·鲍汉 Ian Bohen
      曼努埃尔·加西亚-鲁尔福 Manuel Garcia-Rulfo
      杰克·皮克金 Jake Picking
      布鲁诺·庇屈 Bruno Bichir
      杰克莫·巴泽尔 Jackamoe Buzzell
      以利亚·罗德里格斯 Elijah Rodriguez

◎简  介

  戛纳金棕榈提名影片《边境杀手》续作,本作将聚焦于本尼西奥·德尔·托罗饰演的亚历桑德罗的宿世今生,他的家人当初若何被毒贩熬煎,他又是若何酿故意狠手辣的奸细。当接到护送仇人女儿返回墨西哥的使命时,这位杀手奸细将作出怎样的挑选呢......

  1. Video
  2. ID                                       : 1
  3. Format                                   : HEVC
  4. Format/Info                              : High Efficiency Video Coding
  5. Commercial name                          : HDR10
  6. Format profile                           : Main [url=/cdn-cgi/l/email-protection][email protected][/url]@High
  7. Codec ID                                 : V_MPEGH/ISO/HEVC
  8. Duration                                 : 2 h 2 min
  9. Bit rate                                 : 17.0 Mb/s
  10. Width                                    : 3 840 pixels
  11. Height                                   : 1 600 pixels
  12. Display aspect ratio                     : 2.40:1
  13. Frame rate mode                          : Constant
  14. Frame rate                               : 23.976 (24000/1001) FPS
  15. Color space                              : YUV
  16. Chroma subsampling                       : 4:2:0 (Type 2)
  17. Bit depth                                : 10 bits
  18. Bits/(Pixel*Frame)                       : 0.115
  19. Stream size                              : 14.5 GiB (82%)
  20. Writing library                          : x265 2.8+66-88ee12651e30:[Windows][GCC 6.3.0][64 bit] 10bit
  21. Encoding settings                        : cpuid=1111039 / frame-threads=4 / numa-pools=20 / wpp / no-pmode / no-pme / no-psnr / no-ssim / log-level=2 / input-csp=1 / input-res=3840x1600 / interlace=0 / total-frames=176088 / level-idc=51 / high-tier=1 / uhd-bd=0 / ref=4 / no-allow-non-conformance / repeat-headers / annexb / aud / hrd / info / hash=0 / no-temporal-layers / no-open-gop / min-keyint=1 / keyint=24 / gop-lookahead=0 / bframes=4 / b-adapt=2 / b-pyramid / bframe-bias=0 / rc-lookahead=25 / lookahead-slices=4 / scenecut=40 / radl=0 / no-intra-refresh / ctu=64 / min-cu-size=8 / rect / no-amp / max-tu-size=32 / tu-inter-depth=1 / tu-intra-depth=1 / limit-tu=0 / rdoq-level=2 / dynamic-rd=0.00 / no-ssim-rd / signhide / no-tskip / nr-intra=0 / nr-inter=0 / no-constrained-intra / no-strong-intra-smoothing / max-merge=3 / limit-refs=3 / limit-modes / me=3 / subme=3 / merange=57 / temporal-mvp / weightp / no-weightb / no-analyze-src-pics / deblock=-3:-3 / no-sao / no-sao-non-deblock / rd=4 / no-early-skip / rskip / no-fast-intra / no-tskip-fast / no-cu-lossless / no-b-intra / no-splitrd-skip / rdpenalty=0 / psy-rd=2.00 / psy-rdoq=1.00 / no-rd-refine / no-lossless / cbqpoffs=0 / crqpoffs=0 / rc=crf / crf=17.0 / qcomp=0.60 / qpstep=4 / stats-write=0 / stats-read=0 / vbv-maxrate=160000 / vbv-bufsize=160000 / vbv-init=0.9 / crf-max=0.0 / crf-min=0.0 / ipratio=1.40 / pbratio=1.30 / aq-mode=1 / aq-strength=1.00 / cutree / zone-count=0 / no-strict-cbr / qg-size=32 / no-rc-grain / qpmax=69 / qpmin=0 / no-const-vbv / sar=1 / overscan=0 / videoformat=5 / range=0 / colorprim=9 / transfer=16 / colormatrix=9 / chromaloc=1 / chromaloc-top=2 / chromaloc-bottom=2 / display-window=0 / master-display=G(13250,34500)B(7500,3000)R(34000,16000)WP(15635,16450)L(10000000,1) / max-cll=8325,775 / min-luma=0 / max-luma=1023 / log2-max-poc-lsb=8 / vui-timing-info / vui-hrd-info / slices=1 / no-opt-qp-pps / no-opt-ref-list-length-pps / no-multi-pass-opt-rps / scenecut-bias=0.05 / no-opt-cu-delta-qp / no-aq-motion / hdr / hdr-opt / no-dhdr10-opt / no-idr-recovery-sei / analysis-reuse-level=5 / scale-factor=0 / refine-intra=0 / refine-inter=0 / refine-mv=0 / no-limit-sao / ctu-info=0 / no-lowpass-dct / refine-mv-type=0 / copy-pic=1 / max-ausize-factor=1.0 / no-dynamic-refine / no-single-sei
  22. Default                                  : Yes
  23. Forced                                   : No
  24. Color range                              : Limited
  25. Color primaries                          : BT.2020
  26. Transfer characteristics                 : PQ
  27. Matrix coefficients                      : BT.2020 non-constant
  28. Mastering display color primaries        : Display P3
  29. Mastering display luminance              : min: 0.0001 cd/m2, max: 1000 cd/m2
  30. Maximum Content Light Level              : 8325 cd/m2
  31. Maximum Frame-Average Light Level        : 775 cd/m2

  32. Audio #1
  33. ID                                       : 2
  34. Format                                   : TrueHD
  35. Format profile                           : TrueHD+Atmos / TrueHD
  36. Codec ID                                 : A_TRUEHD
  37. Duration                                 : 2 h 2 min
  38. Bit rate mode                            : Variable
  39. Bit rate                                 : 2 990 kb/s
  40. Maximum bit rate                         : 5 031 kb/s
  41. Channel(s)                               : Object Based / 8 channels
  42. Channel positions                        : Object Based / Front: L C R, Side: L R, Back: L R, LFE
  43. Sampling rate                            :  / 48.0 kHz
  44. Frame rate                               : 1 200.000 FPS (40 SPF)
  45. Compression mode                         : Lossless
  46. Stream size                              : 2.56 GiB (14%)
  47. Language                                 : English
  48. Default                                  : Yes
  49. Forced                                   : No

  50. Audio #2
  51. ID                                       : 3
  52. Format                                   : AC-3
  53. Format/Info                              : Audio Coding 3
  54. Codec ID                                 : A_AC3
  55. Duration                                 : 2 h 2 min
  56. Bit rate mode                            : Constant
  57. Bit rate                                 : 640 kb/s
  58. Channel(s)                               : 6 channels
  59. Channel positions                        : Front: L C R, Side: L R, LFE
  60. Sampling rate                            : 48.0 kHz
  61. Frame rate                               : 31.250 FPS (1536 SPF)
  62. Bit depth                                : 16 bits
  63. Compression mode                         : Lossy
  64. Stream size                              : 560 MiB (3%)
  65. Language                                 : English
  66. Service kind                             : Complete Main
  67. Default                                  : No
  68. Forced                                   : No

  69. Text #1
  70. ID                                       : 4
  71. Format                                   : UTF-8
  72. Codec ID                                 : S_TEXT/UTF8
  73. Codec ID/Info                            : UTF-8 Plain Text
  74. Duration                                 : 1 h 27 min
  75. Bit rate                                 : 6 b/s
  76. Count of elements                        : 172
  77. Stream size                              : 4.44 KiB (0%)
  78. Title                                    : English Forced
  79. Language                                 : English
  80. Default                                  : Yes
  81. Forced                                   : Yes

  82. Text #2
  83. ID                                       : 5
  84. Format                                   : PGS
  85. Muxing mode                              : zlib
  86. Codec ID                                 : S_HDMV/PGS
  87. Codec ID/Info                            : Picture based subtitle format used on BDs/HD-DVDs
  88. Duration                                 : 2 h 1 min
  89. Bit rate                                 : 24.1 kb/s
  90. Count of elements                        : 2098
  91. Stream size                              : 20.9 MiB (0%)
  92. Title                                    : English SDH
  93. Language                                 : English
  94. Default                                  : No
  95. Forced                                   : No

  96. Text #3
  97. ID                                       : 6
  98. Format                                   : PGS
  99. Muxing mode                              : zlib
  100. Codec ID                                 : S_HDMV/PGS
  101. Codec ID/Info                            : Picture based subtitle format used on BDs/HD-DVDs
  102. Duration                                 : 1 h 52 min
  103. Bit rate                                 : 20.3 kb/s
  104. Count of elements                        : 1624
  105. Stream size                              : 16.4 MiB (0%)
  106. Language                                 : English
  107. Default                                  : No
  108. Forced                                   : No

  109. Text #4
  110. ID                                       : 7
  111. Format                                   : PGS
  112. Muxing mode                              : zlib
  113. Codec ID                                 : S_HDMV/PGS
  114. Codec ID/Info                            : Picture based subtitle format used on BDs/HD-DVDs
  115. Duration                                 : 2 h 1 min
  116. Bit rate                                 : 24.1 kb/s
  117. Count of elements                        : 2098
  118. Stream size                              : 20.9 MiB (0%)
  119. Title                                    : English SDH
  120. Language                                 : English
  121. Default                                  : No
  122. Forced                                   : No

  123. Text #5
  124. ID                                       : 8
  125. Format                                   : PGS
  126. Muxing mode                              : zlib
  127. Codec ID                                 : S_HDMV/PGS
  128. Codec ID/Info                            : Picture based subtitle format used on BDs/HD-DVDs
  129. Duration                                 : 1 h 52 min
  130. Bit rate                                 : 20.3 kb/s
  131. Count of elements                        : 1624
  132. Stream size                              : 16.4 MiB (0%)
  133. Language                                 : English
  134. Default                                  : No
  135. Forced                                   : No

  136. Text #6
  137. ID                                       : 9
  138. Format                                   : PGS
  139. Muxing mode                              : zlib
  140. Codec ID                                 : S_HDMV/PGS
  141. Codec ID/Info                            : Picture based subtitle format used on BDs/HD-DVDs
  142. Duration                                 : 2 h 1 min
  143. Bit rate                                 : 16.9 kb/s
  144. Count of elements                        : 1588
  145. Stream size                              : 14.7 MiB (0%)
  146. Language                                 : French
  147. Default                                  : No
  148. Forced                                   : No

  149. Text #7
  150. ID                                       : 10
  151. Format                                   : PGS
  152. Muxing mode                              : zlib
  153. Codec ID                                 : S_HDMV/PGS
  154. Codec ID/Info                            : Picture based subtitle format used on BDs/HD-DVDs
  155. Duration                                 : 2 h 1 min
  156. Bit rate                                 : 17.6 kb/s
  157. Count of elements                        : 1648
  158. Stream size                              : 15.3 MiB (0%)
  159. Language                                 : Portuguese
  160. Default                                  : No
  161. Forced                                   : No

  162. Text #8
  163. ID                                       : 11
  164. Format                                   : PGS
  165. Muxing mode                              : zlib
  166. Codec ID                                 : S_HDMV/PGS
  167. Codec ID/Info                            : Picture based subtitle format used on BDs/HD-DVDs
  168. Duration                                 : 2 h 1 min
  169. Bit rate                                 : 12.8 kb/s
  170. Count of elements                        : 1336
  171. Stream size                              : 11.1 MiB (0%)
  172. Language                                 : Spanish
  173. Default                                  : No
  174. Forced                                   : No

  175. Text #9
  176. ID                                       : 12
  177. Format                                   : PGS
  178. Muxing mode                              : zlib
  179. Codec ID                                 : S_HDMV/PGS
  180. Codec ID/Info                            : Picture based subtitle format used on BDs/HD-DVDs
  181. Duration                                 : 2 h 1 min
  182. Bit rate                                 : 13.9 kb/s
  183. Count of elements                        : 1334
  184. Stream size                              : 12.1 MiB (0%)
  185. Language                                 : Spanish
  186. Default                                  : No
  187. Forced                                   : No
复制代码

复制代码

边境杀手2:边境战士/怒火鸿沟2:毒刑者 Sicario.Day.of.the.Soldado.2018.2160p.UHD.BluRay.X265.10bit.HDR.TrueHD.7.1.Atmos-TERMiNAL 17.97GB-2.png 边境杀手2:边境战士/怒火鸿沟2:毒刑者 Sicario.Day.of.the.Soldado.2018.2160p.UHD.BluRay.X265.10bit.HDR.TrueHD.7.1.Atmos-TERMiNAL 17.97GB-3.png 边境杀手2:边境战士/怒火鸿沟2:毒刑者 Sicario.Day.of.the.Soldado.2018.2160p.UHD.BluRay.X265.10bit.HDR.TrueHD.7.1.Atmos-TERMiNAL 17.97GB-4.png






本帖隐藏的下载地址需要VIP会员才可阅读,您需要升级才可阅读,点击这里升级VIP

回复

使用道具 举报

级别:普通观众 Lv.2

注册时间
2018-9-19
最后登录
2018-10-16
听众
1
收听
0
主题
0
蓝光币
0 枚
贡献
0 点
发表于 2018-9-29 10:31:42 | 显示全部楼层
O(∩_∩)O谢谢!O(∩_∩)O谢谢!O(∩_∩)O谢谢!O(∩_∩)O谢谢!
回复

使用道具 举报

级别:群众演员 Lv.3

注册时间
2018-9-21
最后登录
2018-12-9
听众
2
收听
0
主题
0
蓝光币
272 枚
贡献
0 点
QQ
发表于 2018-9-29 16:12:30 | 显示全部楼层
谢谢楼主的分享~~
回复

使用道具 举报

级别:荣升主角 Lv.5

注册时间
2018-9-3
最后登录
2019-2-20
听众
3
收听
0
主题
84
蓝光币
772 枚
贡献
103 点
发表于 2018-9-30 01:30:41 | 显示全部楼层
谢谢楼主分享
回复

使用道具 举报

级别:初级观众 Lv.1

注册时间
2018-10-4
最后登录
2018-10-4
听众
1
收听
0
主题
0
蓝光币
2 枚
贡献
0 点
发表于 2018-10-4 13:18:23 | 显示全部楼层

谢谢楼主分享∩_∩不错的贴子
回复

使用道具 举报

级别:初级观众 Lv.1

注册时间
2018-10-11
最后登录
2018-10-11
听众
1
收听
0
主题
0
蓝光币
1 枚
贡献
0 点
发表于 2018-10-11 23:32:38 | 显示全部楼层
谢谢楼主分享
回复

使用道具 举报

级别:初级观众 Lv.1

注册时间
2018-10-11
最后登录
2018-10-11
听众
1
收听
0
主题
0
蓝光币
1 枚
贡献
0 点
发表于 2018-10-11 23:33:18 | 显示全部楼层
谢谢楼主分享 让我再得一个币
回复

使用道具 举报

级别:群众演员 Lv.3

注册时间
2018-10-15
最后登录
2019-2-21
听众
2
收听
0
主题
0
蓝光币
164 枚
贡献
0 点
发表于 2018-10-29 16:57:06 | 显示全部楼层
看片太多…自己都不记得到底有没看过
回复

使用道具 举报

级别:群众演员 Lv.3

注册时间
2018-10-24
最后登录
2019-2-20
听众
2
收听
0
主题
0
蓝光币
81 枚
贡献
0 点
发表于 2018-11-4 13:21:24 | 显示全部楼层
楼主分享的高清电影太好了!
回复

使用道具 举报

懒得打字嘛,点击右侧快捷回复 【右侧内容,后台自定义】
您需要登录后才可以回帖 登录 | 立即注册

本版积分规则

QQ|Archiver|手机版|小黑屋|中国高清网 |网站地图

GMT+8, 2019-2-21 16:00 , Processed in 0.178565 second(s), 41 queries .

Powered by HDchina X3.4

Copyright 2017-2018©HDchina.All right reserved

返回顶部 联系我们